Прощай, речь / Adieu au langage / Goodbye to Language (Жан-Люк Годар / Jean-Luc Godard) [2014, Франция, драма, DVD5] R5 MVO + Sub Rus + Original Fre |Лицензия|


Статистика раздачи [Обновить пиров]
Размер:  3.92 GB   |    Зарегистрирован:  1 год 1 месяц   |    Скачан:  0 раз

Полного источника не было: Никогда

 
   
 
 
 

[Цитировать]

Прощай, речь / Adieu au langage / Goodbye to Language
Страна: Франция
Жанр: драма
Год выпуска: 2014
релиз на DVD: 18 декабря 2014, «CP Дистрибуция»
Продолжительность: 01:06:34
Перевод: Профессиональный (многоголосый закадровый)
Cубтитры: Russian
Режиссер: Жан-Люк Годар / Jean-Luc Godard
В ролях: Элоиз Годе, Камель Абдели, Ришар Шевалье, Зои Брунэо, Кристиан Григорий, Джессика Эриксон, Мари Ручат, Джереми Дзампатти, Дэниэл Людвиг, Джино Сиконолфи и др.
Описание: Он и она — два мира, утративших связь друг с другом. Их единственный проводник — собака. Без слов животное транслирует любовь в оба конца, и эта слабая связь неожиданно крепнет. Но хватит ли ее, чтобы разжечь былые чувства?

Дополнительные материалы:
- отсутствуют
Меню: есть, на русском
Тип релиза: DVD5 R5
Контейнер: DVD-Video
Видео кодек: MPEG2
Аудио кодек: AC3
Видео: PAL 16:9 (720x576) VBR Auto Letterboxed ~ 6916 kbps avg
Аудио: Francais (Dolby AC3, 6 ch, 448 kbps)
Аудио: Russian (Dolby AC3, 6 ch, 448 kbps)

DVDInfo

Title: Proshai.Rech.2014.DVD.R5
Size: 3.92 Gb ( 4 112 488,00 KBytes ) - DVD-5
Enabled regions: 1, 2, 3, 4, 5, 6, 7, 8
VTS_01 :
Play Length: 00:00:05
Video: PAL 4:3 (720x576) VBR
Audio:
Not specified (Dolby AC3, 2 ch)
Not specified (Dolby AC3, 2 ch)
Not specified (Dolby AC3, 2 ch)
Subtitles:
Not specified
Not specified
VTS_02 :
Play Length: 00:00:09
Video: PAL 16:9 (720x576) VBR, Auto Letterboxed
Audio:
Not specified (Dolby AC3, 2 ch)
Not specified (Dolby AC3, 2 ch)
Not specified (Dolby AC3, 2 ch)
Subtitles:
Not specified
VTS_03 :
Play Length: 00:02:07
Video: PAL 16:9 (720x576) VBR, Auto Letterboxed
Audio:
Not specified (Dolby AC3, 2 ch)
Not specified (Dolby AC3, 2 ch)
Subtitles:
Not specified
VTS_04 :
Play Length: 01:06:34
Video: PAL 16:9 (720x576) VBR, Auto Letterboxed
Audio:
Russian (Dolby AC3, 6 ch)
Francais (Dolby AC3, 6 ch)
Subtitles:
Russian
VTS_05 :
Play Length: 00:01:53
Video: PAL 16:9 (720x576) VBR, Auto Letterboxed
Audio:
Not specified (Dolby AC3, 2 ch)
Subtitles:
Not specified
VTS_06 :
Play Length: 00:01:38
Video: PAL 16:9 (720x576) VBR, Auto Letterboxed
Audio:
Not specified (Dolby AC3, 2 ch)
Subtitles:
Not specified
VTS_07 :
Play Length: 00:02:33
Video: PAL 16:9 (720x576) VBR, Auto Letterboxed
Audio:
Not specified (Dolby AC3, 2 ch)
Subtitles:
Not specified

MediaInfo

Общее
Полное имя : I:\Proshai.Rech.2014.DVD.R5\VIDEO_TS\VTS_04_3.VOB
Формат : MPEG-PS
Размер файла : 1024 Мбайт
Продолжительность : 17 м.
Режим общего битрейта : Переменный
Общий поток : 7971 Кбит/сек
Видео
Идентификатор : 224 (0xE0)
Формат : MPEG Video
Версия формата : Version 2
Профиль формата : Main@Main
Параметр BVOP формата : Да
Параметр матрицы формата : По умолчанию
Параметр GOP формата : M=3, N=12
Продолжительность : 17 м.
Вид битрейта : Переменный
Битрейт : 6916 Кбит/сек
Максимальный битрейт : 8000 Кбит/сек
Ширина : 720 пикселей
Высота : 576 пикселей
Соотношение сторон : 16:9
Частота кадров : 25,000 кадров/сек
Стандарт вещания : PAL
Цветовое пространство : YUV
Субдискретизация насыщенности : 4:2:0
Битовая глубина : 8 бит
Тип развёртки : Прогрессивная
Метод сжатия : С потерями
Бит/(Пиксели*Кадры) : 0.667
Временной код первого кадра : 00:37:53:17
Оригинал временного кода : Group of pictures header
Размер потока : 888 Мбайт (87%)
Аудио #1
Идентификатор : 189 (0xBD)-128 (0x80)
Формат : AC-3
Формат/Информация : Audio Coding 3
Расширение режима : CM (complete main)
Параметр Endianness формата : Big
Режим смешивания : DVD-Video
Продолжительность : 17 м.
Вид битрейта : Постоянный
Битрейт : 448 Кбит/сек
Каналы : 6 каналов
Расположение каналов : Front: L C R, Side: L R, LFE
Частота : 48,0 КГц
Битовая глубина : 16 бит
Метод сжатия : С потерями
Задержка видео : -736 мс.
Размер потока : 57,6 Мбайт (6%)
Аудио #2
Идентификатор : 189 (0xBD)-129 (0x81)
Формат : AC-3
Формат/Информация : Audio Coding 3
Расширение режима : CM (complete main)
Параметр Endianness формата : Big
Режим смешивания : DVD-Video
Продолжительность : 17 м.
Вид битрейта : Постоянный
Битрейт : 448 Кбит/сек
Каналы : 6 каналов
Расположение каналов : Front: L C R, Side: L R, LFE
Частота : 48,0 КГц
Битовая глубина : 16 бит
Метод сжатия : С потерями
Задержка видео : -736 мс.
Размер потока : 57,6 Мбайт (6%)
Текст
Идентификатор : 189 (0xBD)-32 (0x20)
Формат : RLE
Формат/Информация : Run-length encoding
Режим смешивания : DVD-Video
Меню

Скриншоты меню

Скриншоты

[teatrix.ru].t7269.torrent 
Торрент: Зарегистрирован [ 2015-10-11 11:22 ] · 45580646A6B3C8CD642433742CA15082E4058D3A

Скачать .torrent

Скачать

22 KB

Статус: проверено
Скачан: 0 раз
Размер: 3.92 GB
terms.php



Быстрый ответ

Имя:

      
Для отправки сообщений необходимо включить JavaScript
Показать сообщения:    

Текущее время: 04-Дек 09:03

Часовой пояс: UTC + 3


Вы можете начинать темы
Вы можете отвечать на сообщения
Вы не можете редактировать свои сообщения
Вы не можете удалять свои сообщения
Вы не можете голосовать в опросах
Вы не можете прикреплять файлы к сообщениям
Вы можете скачивать файлы