Последний император / The Last Emperor (Бернардо Бертолуччи / Bernardo Bertolucci) [1987, Китай, Италия, Великобритания, Драма, DVD9 (Custom)][Театральная версия] MVO(Cinema Prestige)+MVO+AVO+Sub Eng, Rus+Original Eng / Criterion Collection#422


Статистика раздачи [Обновить пиров]
Размер:  7.9 GB   |    Зарегистрирован:  1 год 1 месяц   |    Скачан:  0 раз

Полного источника не было: Никогда

 
   
 
 
 

[Цитировать]

Последний император / The Last Emperor / Criterion Collection#422 «He was the Lord of Ten Thousand Years, the absolute monarch of China. He was born to rule a world of ancient tradition. Nothing prepared him for our world of change»Театральная версия Страна:Китай, Италия, Великобритания, Франция
Студия:AAA Soprofilms, Hemdale Films, Recorded Picture Company (RPC), Screenframe Ltd., TAO Film, Yanco Films Limited.
Жанр:Драма, Биография, История
Год выпуска:1987
Продолжительность:02:42:57
Производитель:The Criterion Collection #422
Перевод 1:Профессиональный (многоголосый закадровый) Cinema PrestigeПеревод 2:Профессиональный (многоголосый закадровый)Перевод 3:Авторский одноголосый закадровый А.Михалёв
Cубтитры:Английские, Русские(3 вида) Cinema Prestige, DivxClub, Rus.
Оригинальная аудиодорожка:Английский
Премьера (мир):4.10.1987
Режиссер:Бернардо Бертолуччи / Bernardo BertolucciВ ролях:Джон Лоун — Пу И
Питер О’Тул — Реджинальд Джонстон (en.)
Джоан Чэнь — Вань Жун, 1-я жена Пу И
Виктор Вонг — Чэнь Баочэнь
Ин Жочэн (англ. Ying Ruocheng) — начальник тюрьмы
Рюити Сакамото — Масахико Амакасу
Мэгги Хан (англ. Maggie Han) — «Восточное Сокровище» (Ёсико Кавасима)
Рик Янг — молодой следователь
Вивиан Ву (в титрах У Цзюньмэй) — Вэнь Сю, 2-я жена Пу И
Фань Гуан — Пу Цзе, брат Пу И
Джейд Гоу — Ар Мо, кормилица Пу И
Лиза Лу (англ. Lisa Lu) — императрица Цыси
Бэзил Пао (англ. Basil Pao) — 2-й принц Чан, отец Пу И
Описание:Он был повелителем миллиарда человек. Ему было уготовано «десять тысяч лет счастья». Но мир древних традиций рухнул под напором века перемен… В 1908 году трехлетний Пу И, последний из династии, тысячи лет правившей «Поднебесной империей», был возведен на Трон Дракона.
К императору-ребенку относятся как к божеству. Он может делать все, кроме одного — покидать пределы своего дворца. В Запретный город не долетают «ветры перемен», сотрясающие мир за его стенами. Но жизнь последнего императора Китая оказывается частью всей великой истории XX века.

Доп. информация:Исходник найден в сети.
Профессиональный (многоголосый, закадровый) Cinema Prestige, Профессиональный (многоголосый, закадровый),Авторский (Одноголосый, закадровый) А.Михалёв и русские субтитры(3 вида) Cinema Prestige, DivxClub, Rus.Изначально звуковые дорожки дутые, переведенны в AC3, 2/0.Из-за превышения размера удаленна звуковая дорожка с комментариями, все меню переведенно в статику.
Реавторинг Нордер.Огромное Спасибо Всем, без чьей помощи этот релиз не состоялся бы!Сценарий:Марк Пиплоу, Бернардо Бертолуччи, Энцо УнгариПродюсер:Джереми Томас, Джон Дэйли, Франко ДжовалеОператор:Витторио Стораро
Композитор:Дэвид Бирн, Рюити Сакамото, Цун Су
Художник:Фердинандо Скарфьотти, Мария-Тереза Барбассо, Джанни Джованьони
Монтаж:Габриэлла Кристиани
Бертолуччи, Бернардо-https://ru.wikipedia.org/wiki/Бертолуччи,_Бернардо Фильм-https://ru.wikipedia.org/wiki/Последний_императорЗнаете ли вы, что...">

Это интересноБертолуччи, Бернардо-https://ru.wikipedia.org/wiki/Бертолуччи,_Бернардо Фильм-https://ru.wikipedia.org/wiki/Последний_императорЗнаете ли вы, что...


Награды и номинации

Рецензия

Софт

PGCDemux (извлечение).
BeSweet, Sony Vegas 9 (звук).
DVD-lab PRO 2, Subtitle Workshop (субтитры).
MuxMan (сборка). DvdReMakePro (финал).

Бонусы:(Без перевода)

- Theatrical trailer.
Меню:Английский, статичное, озвученное.Сэмпл :http://multi-up.com/1017796
Тип релиза:DVD9 (Custom)
Контейнер:DVD-Video
Видео:NTSC 16:9 (720x480) VBR, Auto Letterboxed, 5954 Кбит/сек, 29,970 кадров/сек
Аудио 1:Русский:AC3, 2 ch, 48.0 KHz, 192 Кбит/сек / Профессиональный (многоголосый закадровый) Cinema Prestige
Аудио 2:Русский:AC3, 2 ch, 48.0 KHz, 192 Кбит/сек / Профессиональный (многоголосый закадровый)
Аудио 3:Русский:AC3, 2 ch, 48.0 KHz, 192 Кбит/сек / Авторский (Одноголосый, закадровый) А.Михалёв
Аудио 4:Английский:AC3, 2 ch, 48.0 KHz, 192 Кбит/сек / (Оригинал)
Формат субтитров:prerendered (DVD/IDX+SUB)

Dvd Info

Title: The Last Emperor DVD-9_Criterion_#422(Театральная версия)
Size: 7.90 Gb ( 8 281 280,00 KBytes ) - DVD-9
Enabled regions: 1, 2, 3, 4, 5, 6, 7, 8
VTS_01 :
Play Length: 00:00:00
Video: NTSC 16:9 (720x480) VBR, Auto Letterboxed
VTS_02 :
Play Length: 00:00:22
Video: NTSC 16:9 (720x480) VBR, Auto Pan&Scan
VTS_03 :
Play Length: 02:42:57
Video: NTSC 16:9 (720x480) VBR, Auto Letterboxed
Audio:
Russian, AC3, 2/0 (L,R) ch, 192 kbps, Delay 0 mSec
Russian, AC3, 2/0 (L,R) ch, 192 kbps, Delay 0 mSec
Russian, AC3, 2/0 (L,R) ch, 192 kbps, Delay 0 mSec
English, AC3, 2/0 (L,R) ch, 192 kbps, Delay 0 mSec
Subtitles:
English
Russian
Russian
Russian
VTS_04 :
Play Length: 00:02:37
Video: NTSC 4:3 (720x480) VBR
Audio:
English, AC3, 2/0 (L,R) ch, 192 kbps, Delay 0 mSec
VTS_05 :
Play Length: 00:00:00
Video: NTSC 4:3 (720x480) VBR

MediaInfo

Общее
Полное имя: F:\The Last Emperor DVD-9_Criterion_#422(Театральная версия)\VIDEO_TS\VTS_03_1.VOB
Формат : MPEG-PS
Размер файла : 1024 Мбайт
Продолжительность : 20 м.
Режим общего битрейта : Переменный
Общий поток : 6858 Кбит/сек
Видео
Идентификатор : 224 (0xE0)
Формат : MPEG Video
Версия формата : Version 2
Профиль формата : Main@Main
Параметр BVOP формата : Да
Параметр матрицы формата : Выборочная
Параметр GOP формата : M=3, N=12
Продолжительность : 20 м.
Вид битрейта : Переменный
Битрейт : 5954 Кбит/сек
Максимальный битрейт : 9396 Кбит/сек
Ширина : 720 пикселей
Высота : 480 пикселей
Соотношение сторон : 16:9
Частота кадров : 29,970 кадров/сек
Стандарт вещания : NTSC
Цветовое пространство : YUV
Субдискретизация насыщенности : 4:2:0
Битовая глубина : 8 бит
Метод сжатия : С потерями
Бит/(Пиксели*Кадры) : 0.575
Временной код первого кадра : 00:59:46:20
Оригинал временного кода : Group of pictures header
Размер потока : 889 Мбайт (87%)
Аудио #1
Идентификатор : 189 (0xBD)-128 (0x80)
Формат : AC-3
Формат/Информация : Audio Coding 3
Расширение режима : CM (complete main)
Параметр Endianness формата : Big
Режим смешивания : DVD-Video
Продолжительность : 20 м.
Вид битрейта : Постоянный
Битрейт : 192 Кбит/сек
Каналы : 2 канала
Расположение каналов : Front: L R
Частота : 48,0 КГц
Битовая глубина : 16 бит
Метод сжатия : С потерями
Размер потока : 28,7 Мбайт (3%)
Аудио #2
Идентификатор : 189 (0xBD)-129 (0x81)
Формат : AC-3
Формат/Информация : Audio Coding 3
Расширение режима : CM (complete main)
Параметр Endianness формата : Big
Режим смешивания : DVD-Video
Продолжительность : 20 м.
Вид битрейта : Постоянный
Битрейт : 192 Кбит/сек
Каналы : 2 канала
Расположение каналов : Front: L R
Частота : 48,0 КГц
Битовая глубина : 16 бит
Метод сжатия : С потерями
Размер потока : 28,7 Мбайт (3%)
Аудио #3
Идентификатор : 189 (0xBD)-130 (0x82)
Формат : AC-3
Формат/Информация : Audio Coding 3
Расширение режима : CM (complete main)
Параметр Endianness формата : Big
Режим смешивания : DVD-Video
Продолжительность : 20 м.
Вид битрейта : Постоянный
Битрейт : 192 Кбит/сек
Каналы : 2 канала
Расположение каналов : Front: L R
Частота : 48,0 КГц
Битовая глубина : 16 бит
Метод сжатия : С потерями
Размер потока : 28,7 Мбайт (3%)
Аудио #4
Идентификатор : 189 (0xBD)-131 (0x83)
Формат : AC-3
Формат/Информация : Audio Coding 3
Профиль формата : Dolby Digital
Расширение режима : CM (complete main)
Параметр Endianness формата : Big
Режим смешивания : DVD-Video
Продолжительность : 20 м.
Вид битрейта : Постоянный
Битрейт : 192 Кбит/сек
Каналы : 2 канала
Расположение каналов : Front: L R
Частота : 48,0 КГц
Битовая глубина : 16 бит
Метод сжатия : С потерями
Размер потока : 28,7 Мбайт (3%)
Текст #1
Идентификатор : 189 (0xBD)-32 (0x20)
Формат : RLE
Формат/Информация : Run-length encoding
Режим смешивания : DVD-Video
Текст #2
Идентификатор : 189 (0xBD)-33 (0x21)
Формат : RLE
Формат/Информация : Run-length encoding
Режим смешивания : DVD-Video

Скриншоты меню


Скриншоты

Скриншоты доп. материалов

Полиграфия

Телевизионная версия-http://teatrix.ru/viewtopic.php?t=7272Расширенная версия HDRip http://teatrix.ru/viewtopic.php?t=5798 - BDRip 720 - http://teatrix.ru/viewtopic.php?t=6953
[teatrix.ru].t7275.torrent 
Торрент: Зарегистрирован [ 2015-10-11 11:22 ] · 22EE8B179403AD18426FE27290F2EEF7828E5646

Скачать .torrent

Скачать

41 KB

Статус: проверено
Скачан: 0 раз
Размер: 7.9 GB
terms.php



Быстрый ответ

Имя:

      
Для отправки сообщений необходимо включить JavaScript
Показать сообщения:    

Текущее время: 06-Дек 22:53

Часовой пояс: UTC + 3


Вы можете начинать темы
Вы можете отвечать на сообщения
Вы не можете редактировать свои сообщения
Вы не можете удалять свои сообщения
Вы не можете голосовать в опросах
Вы не можете прикреплять файлы к сообщениям
Вы можете скачивать файлы