Венера в мехах / La Venus a la fourrure / Venus in fur (Роман Полански / Roman Polanski) [2013, Франция, Польша, Драма, DVD9 (Custom)] Dub (Line) + VO (Doctor Joker) + Sub Eng, Esp, Rus + Original Fre


Статистика раздачи [Обновить пиров]
Размер:  7.21 GB   |    Зарегистрирован:  1 год 1 месяц   |    Скачан:  1 раз

Полного источника не было: 1 месяц 10 дней

 
   
 
 
 

[Цитировать]

Венера в мехах / La Venus a la fourrure / Venus in fur
Страна:Франция, Польша
Студия:A.S. Films, Monolith Films, R.P. Productions.
Жанр:Драма
Год выпуска:2013
Продолжительность:01:35:43
Перевод 1:Профессиональный (дублированный) LineПеревод 2:Одноголосый закадровый Doctor JokerПеревод 3:Субтитры notabenoid.com
Cубтитры:Английские, Испанские, Русские
Оригинальная аудиодорожка:Французский
Премьера (мир):25.05.2013
Режиссер:Роман Полански / Roman PolanskiВ ролях:Эмманюэль Сенье, Матье Амальрик
Описание:Весь день Тома проводил прослушивания, выбирая актрису для пьесы по знаменитому роману Леопольда фон Захера-Мазоха «Венера в мехах». Режиссер в отчаянии, пока не появляется Ванда — настоящий сгусток энергии, разнузданная и развязная. Она воплощает собой все, что Тома ненавидит: вульгарна, взбалмошна и не остановится ни перед чем, чтобы получить роль. Вдруг все, что так ненавидит Тома, начинает ему нравиться — актриса отлично подготовилась к прослушиванию. Удивление сменяется влечением, а затем и одержимостью этой женщиной.
Доп. информация:Исходник найден в сети.
Профессиональный (дублированный) - LineОдноголосый закадровый ( Doctor Joker по переводу kon2011)Русские субтитры (notabenoid.com) из сети.
Реавторинг Нордер.Огромное Спасибо Всем, без чьей помощи этот релиз не состоялся бы!Сценарий:Дэвид Айвз, Роман Полански, Леопольд фон Захер-МазохПродюсер:Роберт Бенмусса, Ален Сард, Мариуш ЛукомскийОператор:Павел Эдельман
Композитор:Александр Депла
Художник:Брюно Вия, Филипп Кордом
Монтаж:Эрве Де Люс, Марго Мейньер

Награды и номинации

Рецензия

Софт

PGCDemux (извлечение).
BeSweet, Sony Vegas 9 (звук).
DVD-lab PRO 2, Subtitle Workshop (субтитры).
MuxMan (сборка). DvdReMakePro (финал).

Бонусы:(Без перевода)

- Интервью с режисером и актерами.Трейлеры.
Меню:Английский, анимированное, озвученное.Сэмпл :http://multi-up.com/1016581
Тип релиза:DVD9 (Custom)
Контейнер:DVD-Video
Видео:NTSC 16:9 (720x480) VBR, Auto Letterboxed, 7948 Кбит/сек, 29,970 кадров/сек
Аудио: Русский:AC3, 2 ch, 48.0 KHz, 192 Кбит/сек / Профессиональный (дублированный)-Line
Аудио 2: Французский:AC3, 6 ch, 48.0 KHz, 448 Кбит/сек / (Оригинал)
Аудио 3: Русский:AC3, 6 ch, 48.0 KHz, 448 Кбит/сек / Одноголосый закадровый ( Doctor Joker по переводу kon2011)
Формат субтитров:prerendered (DVD/IDX+SUB)

Dvd Info

Title: La Venus a la fourrure DVD-9_Custom
Size: 7.21 Gb ( 7 555 084,00 KBytes ) - DVD-9
Enabled regions: 1, 2, 3, 4, 5, 6, 7, 8
VTS_01 :
Play Length: 01:35:43
Video: NTSC 16:9 (720x480) VBR, Auto Letterboxed
Audio:
Russian, AC3, 2/0 (L,R) ch, 192 kbps, Delay 0 mSec
Francais, AC3, 3/2 (L,C,R,SL,SR)+LFE ch, 448 kbps, Delay 0 mSec
Russian, AC3, 3/2 (L,C,R,SL,SR)+LFE ch, 448 kbps, Delay 0 mSec
Subtitles:
English
English
Espanol
Russian
VTS_02 :
Play Length: 00:11:55+00:01:43
Video: NTSC 16:9 (720x480) VBR, Auto Letterboxed
Audio:
English, AC3, 2/0 (L,R) ch, 192 kbps, Delay 0 mSec
VTS_03 :
Play Length: 00:00:08+00:00:00+00:01:57+{00:00:00}+00:02:20+{00:00:00}+00:02:19+{00:00:00}+00:00:08+{00:00:00}+00:01:42+{00:00:00}
Video: NTSC 16:9 (720x480) VBR, Auto Letterboxed
Audio:
English, AC3, 2/0 (L,R) ch, 192 kbps, Delay 0 mSec

MediaInfo

Общее
Полное имя: F:\La Venus a la fourrure DVD-9_Custom\VIDEO_TS\VTS_01_1.VOB
Формат : MPEG-PS
Размер файла : 1024 Мбайт
Продолжительность : 15 м.
Режим общего битрейта : Переменный
Общий поток : 9220 Кбит/сек
Видео
Идентификатор : 224 (0xE0)
Формат : MPEG Video
Версия формата : Version 2
Профиль формата : Main@Main
Параметр BVOP формата : Да
Параметр матрицы формата : Выборочная
Параметр GOP формата : Variable
Продолжительность : 15 м.
Вид битрейта : Переменный
Битрейт : 7948 Кбит/сек
Максимальный битрейт : 9800 Кбит/сек
Ширина : 720 пикселей
Высота : 480 пикселей
Соотношение сторон : 16:9
Частота кадров : 29,970 кадров/сек
Стандарт вещания : NTSC
Цветовое пространство : YUV
Субдискретизация насыщенности : 4:2:0
Битовая глубина : 8 бит
Тип развёртки : Чересстрочная
Порядок развёртки : Верхнее поле первое
Метод сжатия : С потерями
Бит/(Пиксели*Кадры) : 0.767
Временной код первого кадра : 09:59:52:15
Оригинал временного кода : Group of pictures header
Размер потока : 883 Мбайт (86%)
Аудио #1
Идентификатор : 189 (0xBD)-128 (0x80)
Формат : AC-3
Формат/Информация : Audio Coding 3
Расширение режима : CM (complete main)
Параметр Endianness формата : Big
Режим смешивания : DVD-Video
Продолжительность : 15 м.
Вид битрейта : Постоянный
Битрейт : 192 Кбит/сек
Каналы : 2 канала
Расположение каналов : Front: L R
Частота : 48,0 КГц
Битовая глубина : 16 бит
Метод сжатия : С потерями
Размер потока : 21,3 Мбайт (2%)
Аудио #2
Идентификатор : 189 (0xBD)-129 (0x81)
Формат : AC-3
Формат/Информация : Audio Coding 3
Расширение режима : CM (complete main)
Параметр Endianness формата : Big
Режим смешивания : DVD-Video
Продолжительность : 15 м.
Вид битрейта : Постоянный
Битрейт : 448 Кбит/сек
Каналы : 6 каналов
Расположение каналов : Front: L C R, Side: L R, LFE
Частота : 48,0 КГц
Битовая глубина : 16 бит
Метод сжатия : С потерями
Размер потока : 49,7 Мбайт (5%)
Аудио #3
Идентификатор : 189 (0xBD)-130 (0x82)
Формат : AC-3
Формат/Информация : Audio Coding 3
Расширение режима : CM (complete main)
Параметр Endianness формата : Big
Режим смешивания : DVD-Video
Продолжительность : 15 м.
Вид битрейта : Постоянный
Битрейт : 448 Кбит/сек
Каналы : 6 каналов
Расположение каналов : Front: L C R, Side: L R, LFE
Частота : 48,0 КГц
Битовая глубина : 16 бит
Метод сжатия : С потерями
Размер потока : 49,7 Мбайт (5%)
Текст #1
Идентификатор : 189 (0xBD)-32 (0x20)
Формат : RLE
Формат/Информация : Run-length encoding
Режим смешивания : DVD-Video
Текст #2
Идентификатор : 189 (0xBD)-33 (0x21)
Формат : RLE
Формат/Информация : Run-length encoding
Режим смешивания : DVD-Video
Текст #3
Идентификатор : 189 (0xBD)-34 (0x22)
Формат : RLE
Формат/Информация : Run-length encoding
Режим смешивания : DVD-Video
Текст #4
Идентификатор : 189 (0xBD)-35 (0x23)
Формат : RLE
Формат/Информация : Run-length encoding
Режим смешивания : DVD-Video

Скриншоты меню

Скриншоты

Скриншоты доп. материалов

[teatrix.ru].t7278.torrent 
Торрент: Зарегистрирован [ 2015-10-11 11:22 ] · 14FC294179489DEF538251108FEC0E1550E32AE3

Скачать .torrent

Скачать

38 KB

Статус: проверено
Скачан: 1 раз
Размер: 7.21 GB
terms.php



Быстрый ответ

Имя:

      
Для отправки сообщений необходимо включить JavaScript
Показать сообщения:    

Текущее время: 05-Дек 13:33

Часовой пояс: UTC + 3


Вы можете начинать темы
Вы можете отвечать на сообщения
Вы не можете редактировать свои сообщения
Вы не можете удалять свои сообщения
Вы не можете голосовать в опросах
Вы не можете прикреплять файлы к сообщениям
Вы можете скачивать файлы