Ран / Ran (Акира Куросава / Akira Kurosawa) [1985, Япония, Франция, Боевик, Драма, Военный, DVD9 (Custom)+DVD9] MVO + DVO (ОРТ) + Sub Rus, Eng + Original Jap / Criterion Collection#316


Статистика раздачи [Обновить пиров]
Размер:  14.78 GB   |    Зарегистрирован:  1 год 1 месяц   |    Скачан:  0 раз

Полного источника не было: Никогда

 
   
 
 
 

[Цитировать]

Ран / Хаос / Ran / Criterion Collection#316 Страна:Япония, Франция
Студия:Greenwich Film Productions, Herald Ace Inc., Nippon Herald Films.
Жанр:Боевик, Драма, Военный
Год выпуска:1985
Продолжительность:02:42:33
Производитель:The Criterion Collection #316
Перевод 1:Профессиональный (многоголосый закадровый)Перевод 2:Профессиональный (двухголосый закадровый)ОРТCубтитры:Русский, Английские
Оригинальная аудиодорожка:Японский
Премьера (мир):1.06.1985
Режиссер:Акира Куросава / Akira KurosawaВ ролях:Тацуя Накадаи — лорд Хидэтора Итимондзи
Акира Тэрао — Таро Итимондзи
Дзинпати Нэдзу — Дзиро Итимондзи
Дайсукэ Рю — Сабуро Итимондзи
Миэко Харада — леди Каэдэ
Ёсико Миядзаки — леди Суэ
Хисаси Игава — Сури Куроганэ
Пита — шут Кёами
Масаюки Юи — Танго Хираяма
Описание:Япония, XVI век. Стареющий правитель Хидетора объявляет о разделе своих владений между тремя сыновьями.
Обманутый фальшивыми уверениями в верности двух старших сыновей, Хидетора прогоняет младшего, осмелившегося утверждать, что решение отца навлечет гибель на весь их род. Став жертвой коварного предательства, Хидетора лишается рассудка, а между его наследниками начинается беспощадная братоубийственная война…

Доп. информация:Исходник найден в сети.
Профессиональный (многоголосый, закадровый) взятыиз раздачи kingsize87-Профессиональный (двухголосый закадровый) ОРТ
Профессиональный (многоголосый, закадровый)-AC3, 6 ch изначально был дутый, переведен в AC3, 2 ch.Удалены 3 трейлера(превышение размера).Реавторинг Нордер.Огромное Спасибо Всем, без чьей помощи этот релиз не состоялся бы!Сценарий:Акира Куросава, Хидэо Огуни, Масато ИдэПродюсер:Масато Хара, Серж Зильберман, Кацуми ФурукаваОператор:Асакадзу Накаи, Такао Сайто, Масахару Уэда
Композитор:Тору Такэмицу
Художник:Шинобу Мураки, Ёсиро Мураки, Эми ВадаМонтаж:Акира Куросава
Куросава, Акира-https://ru.wikipedia.org/wiki/Куросава,_Акира Фильм-https://ru.wikipedia.org/wiki/Ран_(фильм)Знаете ли вы, что...">

Это интересноКуросава, Акира-https://ru.wikipedia.org/wiki/Куросава,_Акира Фильм-https://ru.wikipedia.org/wiki/Ран_(фильм)Знаете ли вы, что...


Награды и номинации

Рецензия

Софт

PGCDemux (извлечение).
BeSweet, Sony Vegas 9 (звук).
DVD-lab PRO 2, Subtitle Workshop (субтитры).
MuxMan (сборка). DvdReMakePro (финал).

Бонусы:(Без перевода)


Disc 1,2:-
New, restored high-definition digital transfer
Audio commentary featuring film scholar Stephen Prince
An appreciation of the film by director Sidney Lumet
A.K., a 74-minute film by director Chris Marker
A 30-minute documentary on the making of Ran, from the Toho Masterworks series Akira Kurosawa: It Is Wonderful to Create
A 35-minute video piece reconstructing Ran through Kurosawa’s paintings and sketches, created as part of the series Image: Kurosawa’s Continuity
Video interview with actor Tatsuya Nakadai
Theatrical trailers
New and improved English subtitle translation
Plus: A booklet featuring an essay by critic Michael Wilmington and interviews with Kurosawa and composer Toru Takemitsu
New cover by Lucien S. Y. Yang
Меню:Английский, анимированное, озвученное.Сэмпл Диск 1:http://multi-up.com/1015575Сэмпл Диск 2:http://multi-up.com/1015323Тип релиза:DVD9 (Custom)+DVD9
Контейнер:DVD-Video
Видео:NTSC 16:9 (720x480) VBR, Auto Letterboxed, 5628 Кбит/сек, 29,970 кадров/сек
Аудио 1:Русский:AC3, 2 ch, 48.0 KHz, 192 Кбит/сек / Профессиональный (многоголосый закадровый)Аудио 2:Английский:AC3, 2 ch, 48.0 KHz, 192 Кбит/сек /(Комментарий Stephen Prince)Аудио 3:Японский:AC3, 2 ch, 48.0 KHz, 192 Кбит/сек / (Оригинал)
Аудио 4:Русский:AC3, 2 ch, 48.0 KHz, 192 Кбит/сек / Профессиональный (двухголосый закадровый) / ОРТ
Формат субтитров:prerendered (DVD/IDX+SUB)

Dvd Info- Диск 1

Title: Диск 1
Size: 7.86 Gb ( 8 240 804,00 KBytes ) - DVD-9
Enabled regions: 1, 2, 3, 4, 5, 6, 7, 8
VTS_01 :
Play Length: 00:00:00
Video: NTSC 4:3 (720x480) VBR
VTS_02 :
Play Length: 00:02:04
Video: NTSC 4:3 (720x480) VBR
Audio:
English, AC3, 1/0 (C) ch, 192 kbps, Delay 0 mSec
Subtitles:
English
VTS_03 :
Play Length: 00:00:01
Video: NTSC 4:3 (720x480) VBR
Audio:
Japanese (Dolby AC3, 1 ch)
Subtitles:
English
VTS_04 :
Play Length: 00:00:01
Video: NTSC 4:3 (720x480) VBR
Audio:
Japanese (Dolby AC3, 1 ch)
Subtitles:
English
VTS_05 :
Play Length: 02:42:33
Video: NTSC 16:9 (720x480) VBR, Auto Letterboxed
Audio:
Russian, AC3, 2/0 (L,R) ch, 192 kbps, Delay 0 mSec
English, AC3, 2/0 (L,R) ch, 192 kbps, Delay 0 mSec
Japanese, AC3, 2/0 (L,R) ch, 192 kbps, Delay 0 mSec
Russian, AC3, 2/0 (L,R) ch, 192 kbps, Delay 0 mSec
Subtitles:
Russian
English
VTS_06 :
Play Length: 00:00:20
Video: NTSC 16:9 (720x480) VBR, Auto Pan&Scan
VTS_07 :
Play Length: 00:12:03
Video: NTSC 16:9 (720x480) VBR, Auto Letterboxed
Audio:
English, AC3, 2/0 (L,R) ch, 192 kbps, Delay 0 mSec
Subtitles:
English
VTS_08 :
Play Length: 00:00:01
Video: NTSC 4:3 (720x480) VBR
Audio:
Japanese (Dolby AC3, 1 ch)
Subtitles:
English
VTS_09 :
Play Length: 00:00:00
Video: NTSC 4:3 (720x480) VBR

Dvd Info- Диск 2

Title: Диск 2
Size: 6.93 Gb ( 7 261 900,00 KBytes ) - DVD-9
Enabled regions: 1, 2, 3, 4, 5, 6, 7, 8
VTS_01 :
Play Length: 00:00:00
Video: NTSC 4:3 (720x480) VBR
VTS_02 :
Play Length: 01:14:33
Video: NTSC 16:9 (720x480) VBR, Auto Letterboxed
Audio:
Japanese, AC3, 1/0 (C) ch, 192 kbps, Delay 0 mSec
Subtitles:
English
VTS_03 :
Play Length: 00:29:54
Video: NTSC 4:3 (720x480) VBR
Audio:
Japanese, AC3, 2/0 (L,R) ch, 192 kbps, Delay 0 mSec
Subtitles:
English
VTS_04 :
Play Length: 00:36:02
Video: NTSC 4:3 (720x480) VBR
Audio:
English, AC3, 2/0 (L,R) ch, 192 kbps, Delay 0 mSec
Subtitles:
English
VTS_05 :
Play Length: 00:09:52
Video: NTSC 16:9 (720x480) VBR, Auto Letterboxed
Audio:
Japanese, AC3, 2/0 (L,R) ch, 192 kbps, Delay 0 mSec
Subtitles:
English
VTS_06 :
Play Length: 00:00:00
Video: NTSC 4:3 (720x480) VBR

MediaInfo- Диск 1

Общее
Полное имя: F:\Ran DVD-9_Custom+DVD-9_Criterion_#316\Диск 1\VIDEO_TS
\VTS_05_1.VOB
Формат : MPEG-PS
Размер файла : 1024 Мбайт
Продолжительность : 21 м.
Режим общего битрейта : Переменный
Общий поток : 6526 Кбит/сек
Видео
Идентификатор : 224 (0xE0)
Формат : MPEG Video
Версия формата : Version 2
Профиль формата : Main@Main
Параметр BVOP формата : Да
Параметр матрицы формата : Выборочная
Параметр GOP формата : Variable
Продолжительность : 21 м.
Вид битрейта : Переменный
Битрейт : 5628 Кбит/сек
Максимальный битрейт : 9410 Кбит/сек
Ширина : 720 пикселей
Высота : 480 пикселей
Соотношение сторон : 16:9
Частота кадров : 29,970 кадров/сек
Стандарт вещания : NTSC
Цветовое пространство : YUV
Субдискретизация насыщенности : 4:2:0
Битовая глубина : 8 бит
Тип развёртки : Чересстрочная
Порядок развёртки : Верхнее поле первое
Метод сжатия : С потерями
Бит/(Пиксели*Кадры) : 0.543
Временной код первого кадра : 00:59:36:00
Оригинал временного кода : Group of pictures header
Размер потока : 883 Мбайт (86%)
Аудио #1
Идентификатор : 189 (0xBD)-128 (0x80)
Формат : AC-3
Формат/Информация : Audio Coding 3
Расширение режима : CM (complete main)
Параметр Endianness формата : Big
Режим смешивания : DVD-Video
Продолжительность : 21 м.
Вид битрейта : Постоянный
Битрейт : 192 Кбит/сек
Каналы : 2 канала
Расположение каналов : Front: L R
Частота : 48,0 КГц
Битовая глубина : 16 бит
Метод сжатия : С потерями
Размер потока : 30,1 Мбайт (3%)
Аудио #2
Идентификатор : 189 (0xBD)-129 (0x81)
Формат : AC-3
Формат/Информация : Audio Coding 3
Расширение режима : CM (complete main)
Параметр Endianness формата : Big
Режим смешивания : DVD-Video
Продолжительность : 21 м.
Вид битрейта : Постоянный
Битрейт : 192 Кбит/сек
Каналы : 2 канала
Расположение каналов : Front: L R
Частота : 48,0 КГц
Битовая глубина : 16 бит
Метод сжатия : С потерями
Размер потока : 30,1 Мбайт (3%)
Аудио #3
Идентификатор : 189 (0xBD)-130 (0x82)
Формат : AC-3
Формат/Информация : Audio Coding 3
Расширение режима : CM (complete main)
Параметр Endianness формата : Big
Режим смешивания : DVD-Video
Продолжительность : 21 м.
Вид битрейта : Постоянный
Битрейт : 192 Кбит/сек
Каналы : 2 канала
Расположение каналов : Front: L R
Частота : 48,0 КГц
Битовая глубина : 16 бит
Метод сжатия : С потерями
Размер потока : 30,1 Мбайт (3%)
Аудио #4
Идентификатор : 189 (0xBD)-131 (0x83)
Формат : AC-3
Формат/Информация : Audio Coding 3
Расширение режима : CM (complete main)
Параметр Endianness формата : Big
Режим смешивания : DVD-Video
Продолжительность : 21 м.
Вид битрейта : Постоянный
Битрейт : 192 Кбит/сек
Каналы : 2 канала
Расположение каналов : Front: L R
Частота : 48,0 КГц
Битовая глубина : 16 бит
Метод сжатия : С потерями
Размер потока : 30,1 Мбайт (3%)
Текст #1
Идентификатор : 189 (0xBD)-32 (0x20)
Формат : RLE
Формат/Информация : Run-length encoding
Режим смешивания : DVD-Video
Текст #2
Идентификатор : 189 (0xBD)-33 (0x21)
Формат : RLE
Формат/Информация : Run-length encoding
Режим смешивания : DVD-Video
Текст #3
Идентификатор : 189 (0xBD)-34 (0x22)
Формат : RLE
Формат/Информация : Run-length encoding
Режим смешивания : DVD-Video

MediaInfo- Диск 2

Общее
Полное имя: F:\Ran 2хDVD-9_Criterion_#316\Диск 2\VIDEO_TS\VTS_02_1.VOB
Формат : MPEG-PS
Размер файла : 1024 Мбайт
Продолжительность : 21 м.
Режим общего битрейта : Переменный
Общий поток : 6641 Кбит/сек
Видео
Идентификатор : 224 (0xE0)
Формат : MPEG Video
Версия формата : Version 2
Профиль формата : Main@Main
Параметр BVOP формата : Да
Параметр матрицы формата : Выборочная
Параметр GOP формата : Variable
Продолжительность : 21 м.
Вид битрейта : Переменный
Битрейт : 6317 Кбит/сек
Максимальный битрейт : 9600 Кбит/сек
Ширина : 720 пикселей
Высота : 480 пикселей
Соотношение сторон : 16:9
Частота кадров : 29,970 кадров/сек
Стандарт вещания : NTSC
Цветовое пространство : YUV
Субдискретизация насыщенности : 4:2:0
Битовая глубина : 8 бит
Метод сжатия : С потерями
Бит/(Пиксели*Кадры) : 0.610
Временной код первого кадра : 00:59:59:10
Оригинал временного кода : Group of pictures header
Размер потока : 974 Мбайт (95%)
Аудио
Идентификатор : 189 (0xBD)-128 (0x80)
Формат : AC-3
Формат/Информация : Audio Coding 3
Расширение режима : CM (complete main)
Параметр Endianness формата : Big
Режим смешивания : DVD-Video
Продолжительность : 21 м.
Вид битрейта : Постоянный
Битрейт : 192 Кбит/сек
Каналы : 1 канал
Расположение каналов : Front: C
Частота : 48,0 КГц
Битовая глубина : 16 бит
Метод сжатия : С потерями
Размер потока : 29,6 Мбайт (3%)
Текст #1
Идентификатор : 189 (0xBD)-32 (0x20)
Формат : RLE
Формат/Информация : Run-length encoding
Режим смешивания : DVD-Video
Текст #2
Идентификатор : 189 (0xBD)-33 (0x21)
Формат : RLE
Формат/Информация : Run-length encoding
Режим смешивания : DVD-Video

Скриншоты меню-Диск 1

Скриншоты фильма-Диск 1

Скриншоты доп. материалов-Диск 1



Скриншоты меню-Диск 2



Скриншоты доп. материалов-Диск 2



Полиграфия+Буклет Буклет http://multi-up.com/1015312Релиз:
[teatrix.ru].t7284.torrent 
Торрент: Зарегистрирован [ 2015-10-11 11:22 ] · 9F8146AA6BD6F1CE53D723AE89E35C20D47ED2E0

Скачать .torrent

Скачать

79 KB

Статус: проверено
Скачан: 0 раз
Размер: 14.78 GB
terms.php



Быстрый ответ

Имя:

      
Для отправки сообщений необходимо включить JavaScript
Показать сообщения:    

Текущее время: 06-Дек 17:11

Часовой пояс: UTC + 3


Вы можете начинать темы
Вы можете отвечать на сообщения
Вы не можете редактировать свои сообщения
Вы не можете удалять свои сообщения
Вы не можете голосовать в опросах
Вы не можете прикреплять файлы к сообщениям
Вы можете скачивать файлы