Декамерон / Il Decameron / The Decameron (Пьер Паоло Пазолини / Pier Paolo Pasolini) [1970, Италия, Франция, ФРГ, Драма, Комедия, DVD9 (Custom)] MVO (Film Prestige) + AVO (Михаил Иванов) + Sub Eng, Rus + Original Ita / Criterion Collection#632


Статистика раздачи [Обновить пиров]
Размер:  7.92 GB   |    Зарегистрирован:  1 год 1 месяц   |    Скачан:  0 раз

Полного источника не было: Никогда

 
   
 
 
 

[Цитировать]

Декамерон / Il Decameron / The Decameron / Criterion Collection#632«Pasolini - Sacred and Profane»
Страна:Италия, Франция, Германия (ФРГ)
Студия:Artemis Film, Les Productions Artistes Associes, Produzioni Europee Associati (PEA).
Жанр:Драма, Комедия
Год выпуска:1970
Продолжительность:01:51:06
Производитель:The Criterion Collection #632
Перевод 1:Профессиональный (многоголосый закадровый)Film PrestigeПеревод 2:Авторский (одноголосый закадровый) Михаил ИвановCубтитры:Английские, Русские
Оригинальная аудиодорожка:Итальянский
Премьера (мир):29.06.1971
Режиссер:Пьер Паоло Пазолини / Pier Paolo PasoliniВ ролях:Франко Читти — Чаппеллетто
Нинетто Даволи — Андруччо
Йован Йованович — Рустико
Ангела Люче — Перонелла
Пьер Паоло Пазолини — художник Джотто
Сильвана Мангано — Мадонна
Винченцо Кристо
Габриэлла Франкель
Винченцо Амато
Гвидо Альберти
Описание:Художник Джотто странствует по дорогам Италии эпохи зарождающегося Ренессанса в поисках гармонии и истины Джотто становится свидетелем самых разных жизненных историй и жадно вбирает в себя во впечатления от изменяющейся, многоликой реальности.
Эта реальность — веселая или печальная, суровая или фривольная наполнена мощной стихией любви и жажды жизни, торжествующих вопреки многовековым предрассудкам и запретам.

Доп. информация:Исходник найден в сети.
Профессиональный (многоголосый, закадровый)
Авторский (одноголосый закадровый)Реавторинг Нордер.Огромное Спасибо Всем, без чьей помощи этот релиз не состоялся бы!Сценарий:Пьер Паоло Пазолини, Джованни БоккаччоПродюсер:Альберто Гримальди, Франко РосселлиниОператор:Тонино Делли Колли
Композитор:Эннио Морриконе
Художник:Данте Ферретти, Данило Донати, Андреа Фантаччи
Монтаж:Нино Баральи, Татьяна Казини Мориджи
Пазолини, Пьер Паоло-https://ru.wikipedia.org/wiki/Пазолини,_Пьер_Паоло Фильм-https://ru.wikipedia.org/wiki/Декамерон_(фильм)Знаете ли вы, что...">

Это интересноПазолини, Пьер Паоло-https://ru.wikipedia.org/wiki/Пазолини,_Пьер_Паоло Фильм-https://ru.wikipedia.org/wiki/Декамерон_(фильм)Знаете ли вы, что...


Награды и номинации

Рецензия

Софт

PGCDemux (извлечение).
BeSweet, Sony Vegas 9 (звук).
DVD-lab PRO 2, Subtitle Workshop (субтитры).
MuxMan (сборка). DvdReMakePro (финал).

Бонусы:(Без перевода)

On “The Decameron,” a new visual essay by film scholar Patrick Rumble
The Lost Body of Alibech (2005), a forty-five-minute documentary by Roberto Chiesi about a lost sequence from The Decameron
Via Pasolini (2005), a twenty-seven-minute documentary featuring archival footage of director Pier Paolo Pasolini discussing his views on language, film, and modern society
Trailers
New English subtitle translation
Меню:Английский, статичное, озвученное.Сэмпл :http://multi-up.com/1015188
Тип релиза:DVD9 (Custom)
Контейнер:DVD-Video
Видео:NTSC 16:9 (720x480) VBR, Auto Letterboxed, 5443 Кбит/сек, 23,976 кадра/сек
Аудио 1:Русский:AC3, 2 ch, 48.0 KHz, 192 Кбит/сек / Film Prestige
Аудио 2:Русский:AC3, 2 ch, 48.0 KHz, 192 Кбит/сек / Михаил ИвановАудио 3: Итальянский:AC3, 1 ch, 48.0 KHz, 384 Кбит/сек / (Оригинал)Формат субтитров:prerendered (DVD/IDX+SUB)

Dvd Info

Title: The Decameron DVD-9_Custom_Criterion_#632
Size: 7.92 Gb ( 8 309 520,00 KBytes ) - DVD-9
Enabled regions: 1, 2, 3, 4, 5, 6, 7, 8
VTS_01 :
Play Length: 00:00:00
Video: NTSC 16:9 (720x480) VBR, Auto Letterboxed
VTS_02 :
Play Length: 00:01:27
Video: NTSC 16:9 (720x480) VBR, Auto Letterboxed
Audio:
English, AC3, 1/0 (C) ch, 192 kbps, Delay 0 mSec
Subtitles:
English
VTS_03 :
Play Length: 00:02:30
Video: NTSC 16:9 (720x480) VBR, Auto Letterboxed
Audio:
Italiano, AC3, 1/0 (C) ch, 192 kbps, Delay 0 mSec
Subtitles:
English
VTS_04 :
Play Length: 01:51:06
Video: NTSC 16:9 (720x480) VBR, Auto Letterboxed
Audio:
Russian, AC3, 2/0 (L,R) ch, 192 kbps, Delay 0 mSec
Russian, AC3, 2/0 (L,R) ch, 192 kbps, Delay 0 mSec
Italiano, AC3, 1/0 (C) ch, 384 kbps, Delay 0 mSec
Subtitles:
English
Russian
VTS_05 :
Play Length: 00:00:20
Video: NTSC 16:9 (720x480) VBR, Auto Pan&Scan
VTS_06 :
Play Length: 00:24:44
Video: NTSC 16:9 (720x480) VBR, Auto Letterboxed
Audio:
English, AC3, 1/0 (C) ch, 192 kbps, Delay 0 mSec
Subtitles:
English
VTS_07 :
Play Length: 00:44:32
Video: NTSC 4:3 (720x480) VBR
Audio:
Italiano, AC3, 1/0 (C) ch, 192 kbps, Delay 0 mSec
Subtitles:
English
VTS_08 :
Play Length: 00:00:00
Video: NTSC 4:3 (720x480) VBR

MediaInfo

Общее
Полное имя: F:The Decameron DVD-9_Custom_Criterion_#632\VIDEO_TS\VTS_04_2.VOB
Формат : MPEG-PS
Размер файла : 1024 Мбайт
Продолжительность : 22 м.
Режим общего битрейта : Переменный
Общий поток : 6337 Кбит/сек
Видео
Идентификатор : 224 (0xE0)
Формат : MPEG Video
Версия формата : Version 2
Профиль формата : Main@Main
Параметр BVOP формата : Да
Параметр матрицы формата : Выборочная
Параметр GOP формата : Variable
Продолжительность : 22 м.
Вид битрейта : Переменный
Битрейт : 5443 Кбит/сек
Максимальный битрейт : 9800 Кбит/сек
Ширина : 720 пикселей
Высота : 480 пикселей
Соотношение сторон : 16:9
Частота кадров : 23,976 кадра/сек
Стандарт вещания : NTSC
Цветовое пространство : YUV
Субдискретизация насыщенности : 4:2:0
Битовая глубина : 8 бит
Тип развёртки : Прогрессивная
Порядок развёртки : 2:3 Pulldown
Метод сжатия : С потерями
Бит/(Пиксели*Кадры) : 0.657
Временной код первого кадра : 01:20:17:19
Оригинал временного кода : Group of pictures header
Размер потока : 879 Мбайт (86%)
Аудио #1
Идентификатор : 189 (0xBD)-128 (0x80)
Формат : AC-3
Формат/Информация : Audio Coding 3
Расширение режима : CM (complete main)
Параметр Endianness формата : Big
Режим смешивания : DVD-Video
Продолжительность : 22 м.
Вид битрейта : Постоянный
Битрейт : 192 Кбит/сек
Каналы : 2 канала
Расположение каналов : Front: L R
Частота : 48,0 КГц
Битовая глубина : 16 бит
Метод сжатия : С потерями
Задержка видео : -563 мс.
Размер потока : 31,0 Мбайт (3%)
Аудио #2
Идентификатор : 189 (0xBD)-129 (0x81)
Формат : AC-3
Формат/Информация : Audio Coding 3
Расширение режима : CM (complete main)
Параметр Endianness формата : Big
Режим смешивания : DVD-Video
Продолжительность : 22 м.
Вид битрейта : Постоянный
Битрейт : 192 Кбит/сек
Каналы : 2 канала
Расположение каналов : Front: L R
Частота : 48,0 КГц
Битовая глубина : 16 бит
Метод сжатия : С потерями
Задержка видео : -563 мс.
Размер потока : 31,0 Мбайт (3%)
Аудио #3
Идентификатор : 189 (0xBD)-130 (0x82)
Формат : AC-3
Формат/Информация : Audio Coding 3
Расширение режима : CM (complete main)
Параметр Endianness формата : Big
Режим смешивания : DVD-Video
Продолжительность : 22 м.
Вид битрейта : Постоянный
Битрейт : 384 Кбит/сек
Каналы : 1 канал
Расположение каналов : Front: C
Частота : 48,0 КГц
Битовая глубина : 16 бит
Метод сжатия : С потерями
Задержка видео : -627 мс.
Размер потока : 62,0 Мбайт (6%)
Текст #1
Идентификатор : 189 (0xBD)-32 (0x20)
Формат : RLE
Формат/Информация : Run-length encoding
Режим смешивания : DVD-Video
Текст #2
Идентификатор : 189 (0xBD)-33 (0x21)
Формат : RLE
Формат/Информация : Run-length encoding
Режим смешивания : DVD-Video
Текст #3
Идентификатор : 189 (0xBD)-34 (0x22)
Формат : RLE
Формат/Информация : Run-length encoding
Режим смешивания : DVD-Video

Скриншоты меню

Скриншоты

Скриншоты доп. материалов


Полиграфия






[teatrix.ru].t7286.torrent 
Торрент: Зарегистрирован [ 2015-10-11 11:22 ] · AF45958A698BF868BC29AB6FA29B6517BA4A23AE

Скачать .torrent

Скачать

42 KB

Статус: проверено
Скачан: 0 раз
Размер: 7.92 GB
terms.php



Быстрый ответ

Имя:

      
Для отправки сообщений необходимо включить JavaScript
Показать сообщения:    

Текущее время: 05-Дек 17:36

Часовой пояс: UTC + 3


Вы можете начинать темы
Вы можете отвечать на сообщения
Вы не можете редактировать свои сообщения
Вы не можете удалять свои сообщения
Вы не можете голосовать в опросах
Вы не можете прикреплять файлы к сообщениям
Вы можете скачивать файлы