Кагемуся: Тень воина / Kagemusha (Акира Куросава / Akira Kurosawa) [1980, Япония, драма, военный, история, DVD9 (Custom) + DVD9] [Criterion Collection#267] MVO (1 канал) + MVO + Sub Eng, Rus + Original Jap


Статистика раздачи [Обновить пиров]
Размер:  14.14 GB   |    Зарегистрирован:  1 год 1 месяц   |    Скачан:  0 раз

Полного источника не было: Никогда

 
   
 
 
 

[Цитировать]

Кагэмуся / Тень воина / Kagemusha / Criterion Collection#267 Страна:Япония, США
Студия:20th Century Fox Film Corporation, Kurosawa Production Co. Ltd., Toho Company.
Жанр:Драма, Военный, История
Год выпуска:1980
Продолжительность:03:00:24
Производитель:The Criterion Collection #267
Перевод 1:Профессиональный (многоголосый закадровый) 1 каналПеревод 2:Профессиональный (многоголосый закадровый)Cубтитры:Английские, Русский(полные), Русские(на непереведенные места)
Оригинальная аудиодорожка:Японский
Премьера (мир):23.04.1980
Режиссер:Акира Куросава / Akira KurosawaВ ролях:Тацуя Накадай - Такэда Сингэн / Воин-тень
Цутому Ямадзаки - Такэда Нобукадо
Кэнъити Хагивара - Такэда Кацуёри
Дзинпати Нэдзу - Цутия Сохатиро
Хидэдзи Отаки - Ямагата Масакагэ
Дайскэ Рю - Ода Нобунага
Масаюки Юи - Токугава Иэясу
Каори Момой - Оцуяноката
Мицуко Байсё - Оюноката
Хидэо Мурота - Баба Нобуфуса
Такаюки Сихо - Найто Масатоё
Такаси Симура - Тагути Гёбу
Описание:Япония, 16 век. Мелкий воришка Кагемуся осуждён на казнь, но внезапно ему даруют жизнь. Дело в том, что он как две капли воды похож на местного правителя Такеду, властного и сильного человека, один вид которого воодушевлял солдат. Но Такеда недавно скончался…
Доп. информация:Исходник найден в сети.
Русский звук и субтитры взятыиз раздачи miha2154-http://rutracker.org/forum/viewtopic.php?t=4595906.Из за превышения размера удалены трейлеры, звуковая дорожка с коментариями переведена в (AC3 1 ch).
Реавторинг Нордер.Огромное Спасибо Всем, без чьей помощи этот релиз не состоялся бы!Сценарий:Масато Идэ, Акира КуросаваПродюсер:Оди Бок, Френсис Форд Коппола, Акира КуросаваОператор:Такао Сайто, Масахару Уэда
Композитор:Синитиро Икэбэ
Художник:Ёсиро Мураки, Сэйитиро Хагакусава
Куросава, Акира-https://ru.wikipedia.org/wiki/Куросава,_Акира Фильм-https://ru.wikipedia.org/wiki/Тень_воинаЗнаете ли вы, что...">

Это интересноКуросава, Акира-https://ru.wikipedia.org/wiki/Куросава,_Акира Фильм-https://ru.wikipedia.org/wiki/Тень_воинаЗнаете ли вы, что...


Награды и номинации

Рецензия

Софт

PGCDemux (извлечение).
BeSweet, Sony Vegas 9 (звук).
DVD-lab PRO 2, Subtitle Workshop (субтитры).
MuxMan (сборка). DvdReMakePro (финал).

Бонусы:(Без перевода)


Disc 1,2:-
Audio commentary by Kurosawa scholar Stephen Prince
Lucas, Coppola, and Kurosawa, a 19-minute interview piece in which directors George Lucas and Francis Ford Coppola discuss Kurosawa and Kagemusha
A 41-minute documentary on the making of the film
Image: Kurosawa’s Continuity, a 44-minute video piece reconstructing Kagemusha through Kurosawa’s paintings and sketches
Suntory Whiskey commercials made on the set of Kagemusha
Gallery of storyboards painted by Kurosawa and images of their realization on-screen
Theatrical trailers and teasers
New English subtitle translation
PLUS: A booklet featuring a new essay by scholar Peter Grilli, and an interview with Kurosawa by renowned critic Tony Rayns (DVD and Blu-ray); and biographical sketches by Japanese film historian Donald Richie (DVD only) Cover painting by Akira Kurosawa
Меню:Английский, анимированное, озвученное.Сэмпл Диск 1:http://sendfile.su/1051489Сэмпл Диск 2:http://sendfile.su/1051483Тип релиза:DVD9 (Custom)+DVD9
Контейнер:DVD-Video
Видео:NTSC 16:9 (720x480) VBR, Auto Letterboxed, 5725 Кбит/сек, 23,976 кадра/сек
Аудио 1:Японский:AC3, 4 ch, 48.0 KHz, 384 Кбит/сек / (Оригинал)Аудио 2:Английский:AC3, 1 ch, 48.0 KHz, 96 Кбит/сек /(Комментарий Akira Kurosawa, Stephen Prince)Аудио 3: Русский:AC3, 2 ch, 48.0 KHz, 192 Кбит/сек / Профессиональный (многоголосый закадровый) 1 канал
Аудио 4:Русский:AC3, 2 ch, 48.0 KHz, 192 Кбит/сек / Профессиональный (многоголосый закадровый)
Формат субтитров:prerendered (DVD/IDX+SUB)

Dvd Info- Диск 1

Title: Диск 1
Size: 7.95 Gb ( 8 333 996,00 KBytes ) - DVD-9
Enabled regions: 1, 2, 3, 4, 5, 6, 7, 8
VTS_01 :
Play Length: 00:00:00
Video: NTSC 4:3 (720x480) VBR
VTS_02 :
Play Length: 00:00:01
Video: NTSC 16:9 (720x480) VBR, Auto Letterboxed
Audio:
English (Dolby AC3, 1 ch)
VTS_03 :
Play Length: 00:00:01
Video: NTSC 16:9 (720x480) VBR, Auto Letterboxed
Audio:
Japanese (Dolby AC3, 1 ch)
Subtitles:
English
VTS_04 :
Play Length: 00:00:01
Video: NTSC 16:9 (720x480) VBR, Auto Letterboxed
Audio:
Japanese (Dolby AC3, 1 ch)
Subtitles:
English
VTS_05 :
Play Length: 00:00:01
Video: NTSC 4:3 (720x480) VBR
Audio:
Japanese (Dolby AC3, 2 ch)
English (Dolby AC3, 2 ch)
Subtitles:
English
VTS_06 :
Play Length: 03:00:24
Video: NTSC 16:9 (720x480) VBR, Auto Letterboxed
Audio:
Japanese (Dolby AC3, 4 ch)
English (Dolby AC3, 1 ch)
Russian (Dolby AC3, 2 ch)
Russian (Dolby AC3, 2 ch)
Subtitles:
English
Russian
Russian
VTS_07 :
Play Length: 00:00:00
Video: NTSC 4:3 (720x480) VBR

Dvd Info- Диск 2

Title: Диск 2
Size: 6.20 Gb ( 6 497 820,00 KBytes ) - DVD-9
Enabled regions: 1, 2, 3, 4, 5, 6, 7, 8
VTS_01 :
Play Length: 00:00:00
Video: NTSC 4:3 (720x480) VBR
VTS_02 :
Play Length: 00:00:12
Video: NTSC 4:3 (720x480) VBR
Subtitles:
English
VTS_03 :
Play Length: 00:19:19
Video: NTSC 16:9 (720x480) VBR, Auto Letterboxed
Audio:
English, AC3, 1/0 (C) ch, 192 kbps, Delay 0 mSec
Subtitles:
English
VTS_04 :
Play Length: 00:40:57
Video: NTSC 4:3 (720x480) VBR
Audio:
Japanese, AC3, 2/0 (L,R) ch, 192 kbps, Delay 0 mSec
Subtitles:
English
VTS_05 :
Play Length: 00:43:41
Video: NTSC 4:3 (720x480) VBR
Audio:
Japanese, AC3, 2/0 (L,R) ch, 192 kbps, Delay 0 mSec
Subtitles:
English
VTS_06 :
Play Length: 00:03:40+{00:01:02}+{00:00:32}+{00:00:32}+{00:01:02}+{00:00:32}
Video: NTSC 4:3 (720x480) VBR
Audio:
Japanese, AC3, 1/0 (C) ch, 192 kbps, Delay 0 mSec
Subtitles:
English
VTS_07 :
Play Length: 00:00:00
Video: NTSC 4:3 (720x480) VBR

MediaInfo- Диск 1

Общее
Полное имя: F:\Kagemusha DVD-9_Custom+DVD-9_Criterion_#267\DVD1\VIDEO_TS\VTS_06_3.VOB
Формат : MPEG-PS
Размер файла : 1024 Мбайт
Продолжительность : 21 м.
Режим общего битрейта : Переменный
Общий поток : 6723 Кбит/сек
Видео
Идентификатор : 224 (0xE0)
Формат : MPEG Video
Версия формата : Version 2
Профиль формата : Main@Main
Параметр BVOP формата : Да
Параметр матрицы формата : Выборочная
Параметр GOP формата : M=3, N=12
Продолжительность : 21 м.
Вид битрейта : Переменный
Битрейт : 5725 Кбит/сек
Максимальный битрейт : 9800 Кбит/сек
Ширина : 720 пикселей
Высота : 480 пикселей
Соотношение сторон : 16:9
Частота кадров : 23,976 кадра/сек
Стандарт вещания : NTSC
Цветовое пространство : YUV
Субдискретизация насыщенности : 4:2:0
Битовая глубина : 8 бит
Тип развёртки : Прогрессивная
Порядок развёртки : 2:3 Pulldown
Метод сжатия : С потерями
Бит/(Пиксели*Кадры) : 0.691
Временной код первого кадра : 01:45:30:10
Оригинал временного кода : Group of pictures header
Размер потока : 872 Мбайт (85%)
Аудио #1
Идентификатор : 189 (0xBD)-128 (0x80)
Формат : AC-3
Формат/Информация : Audio Coding 3
Расширение режима : CM (complete main)
Параметр Endianness формата : Big
Режим смешивания : DVD-Video
Продолжительность : 21 м.
Вид битрейта : Постоянный
Битрейт : 384 Кбит/сек
Каналы : 4 канала
Расположение каналов : Front: L C R, Back: C
Частота : 48,0 КГц
Битовая глубина : 16 бит
Метод сжатия : С потерями
Задержка видео : -531 мс.
Размер потока : 58,5 Мбайт (6%)
Аудио #2
Идентификатор : 189 (0xBD)-129 (0x81)
Формат : AC-3
Формат/Информация : Audio Coding 3
Расширение режима : CM (complete main)
Параметр Endianness формата : Big
Режим смешивания : DVD-Video
Продолжительность : 21 м.
Вид битрейта : Постоянный
Битрейт : 96,0 Кбит/сек
Каналы : 1 канал
Расположение каналов : Front: C
Частота : 48,0 КГц
Битовая глубина : 16 бит
Метод сжатия : С потерями
Задержка видео : -275 мс.
Размер потока : 14,6 Мбайт (1%)
Аудио #3
Идентификатор : 189 (0xBD)-130 (0x82)
Формат : AC-3
Формат/Информация : Audio Coding 3
Расширение режима : CM (complete main)
Параметр Endianness формата : Big
Режим смешивания : DVD-Video
Продолжительность : 21 м.
Вид битрейта : Постоянный
Битрейт : 192 Кбит/сек
Каналы : 2 канала
Расположение каналов : Front: L R
Частота : 48,0 КГц
Битовая глубина : 16 бит
Метод сжатия : С потерями
Задержка видео : -435 мс.
Размер потока : 29,2 Мбайт (3%)
Аудио #4
Идентификатор : 189 (0xBD)-131 (0x83)
Формат : AC-3
Формат/Информация : Audio Coding 3
Расширение режима : CM (complete main)
Параметр Endianness формата : Big
Режим смешивания : DVD-Video
Продолжительность : 21 м.
Вид битрейта : Постоянный
Битрейт : 192 Кбит/сек
Каналы : 2 канала
Расположение каналов : Front: L R
Частота : 48,0 КГц
Битовая глубина : 16 бит
Метод сжатия : С потерями
Задержка видео : -435 мс.
Размер потока : 29,2 Мбайт (3%)
Текст #1
Идентификатор : 189 (0xBD)-32 (0x20)
Формат : RLE
Формат/Информация : Run-length encoding
Режим смешивания : DVD-Video
Текст #2
Идентификатор : 189 (0xBD)-33 (0x21)
Формат : RLE
Формат/Информация : Run-length encoding
Режим смешивания : DVD-Video
Текст #3
Идентификатор : 189 (0xBD)-34 (0x22)
Формат : RLE
Формат/Информация : Run-length encoding
Режим смешивания : DVD-Video

MediaInfo- Диск 2

Общее
Полное имя : F:\CRITERION COLLECTION №267 Кагемуша (Тень Воина)\DVD2\VIDEO_TS\VTS_04_1.VOB
Формат : MPEG-PS
Размер файла : 1024 Мбайт
Продолжительность : 17 м.
Режим общего битрейта : Переменный
Общий поток : 8181 Кбит/сек
Видео
Идентификатор : 224 (0xE0)
Формат : MPEG Video
Версия формата : Version 2
Профиль формата : Main@Main
Параметр BVOP формата : Да
Параметр матрицы формата : Выборочная
Параметр GOP формата : Variable
Продолжительность : 17 м.
Вид битрейта : Переменный
Битрейт : 7826 Кбит/сек
Максимальный битрейт : 9800 Кбит/сек
Ширина : 720 пикселей
Высота : 480 пикселей
Соотношение сторон : 4:3
Частота кадров : 29,970 кадров/сек
Стандарт вещания : Component
Цветовое пространство : YUV
Субдискретизация насыщенности : 4:2:0
Битовая глубина : 8 бит
Тип развёртки : Чересстрочная
Порядок развёртки : Верхнее поле первое
Метод сжатия : С потерями
Бит/(Пиксели*Кадры) : 0.756
Временной код первого кадра : 01:19:29:20
Оригинал временного кода : Group of pictures header
Размер потока : 979 Мбайт (96%)
Основные цвета : BT.601 NTSC
Характеристики трансфера : BT.601
Коэффициенты матрицы : BT.601
Аудио
Идентификатор : 189 (0xBD)-128 (0x80)
Формат : AC-3
Формат/Информация : Audio Coding 3
Расширение режима : CM (complete main)
Параметр Endianness формата : Big
Режим смешивания : DVD-Video
Продолжительность : 17 м.
Вид битрейта : Постоянный
Битрейт : 192 Кбит/сек
Каналы : 2 канала
Расположение каналов : Front: L R
Частота : 48,0 КГц
Битовая глубина : 16 бит
Метод сжатия : С потерями
Размер потока : 24,0 Мбайт (2%)
Текст
Идентификатор : 189 (0xBD)-32 (0x20)
Формат : RLE
Формат/Информация : Run-length encoding
Режим смешивания : DVD-Video
Продолжительность : 17 м.
Задержка видео : 1 с. 635 мс.

Скриншоты меню-Диск 1


Скриншоты фильма-Диск 1

Скриншоты доп. материалов-Диск 1



Скриншоты меню-Диск 2



Скриншоты доп. материалов-Диск 2



Полиграфия+Буклет
[teatrix.ru].t7290.torrent 
Торрент: Зарегистрирован [ 2015-10-11 11:22 ] · 384BCA36D4C7464878FF6F4CAFA0317B381772C7

Скачать .torrent

Скачать

76 KB

Статус: проверено
Скачан: 0 раз
Размер: 14.14 GB
terms.php



Быстрый ответ

Имя:

      
Для отправки сообщений необходимо включить JavaScript
Показать сообщения:    

Текущее время: 04-Дек 23:21

Часовой пояс: UTC + 3


Вы можете начинать темы
Вы можете отвечать на сообщения
Вы не можете редактировать свои сообщения
Вы не можете удалять свои сообщения
Вы не можете голосовать в опросах
Вы не можете прикреплять файлы к сообщениям
Вы можете скачивать файлы