Кентерберийские рассказы / I racconti di Canterbury / The Canterbury Tales (Пьер Паоло Пазолини / Pier Paolo Pasolini) [1972, Италия, Франция, DVD9 (Custom)] [16:9 NTSC R1] Criterion#633, MVO (Кармен Видео) + VO + Sub Rus Eng + Orig Ita Eng


Статистика раздачи [Обновить пиров]
Размер:  7.93 GB   |    Зарегистрирован:  1 год 1 месяц   |    Скачан:  0 раз

Полного источника не было: Никогда

 
   
 
 
 

[Цитировать]

Кентерберийские рассказы / I racconti di Canterbury / The Canterbury Tales
16:9 NTSC R1 Criterion#633
Страна: Италия, Франция
Студия: Les Productions Artistes Associés, Produzioni Europee Associati (PEA)
Жанр: драма, комедия
Год выпуска: 1972
Продолжительность: 01:51:14
Перевод 1: Профессиональный (многоголосый закадровый) - R5 "Кармен Видео"
Перевод 2: Одноголосый закадровый
Cубтитры: английские, русские
Оригинальная аудиодорожка: итальянский, английский
Режиссер: Пьер Паоло Пазолини / Pier Paolo Pasolini
В ролях: Хью Гриффит, Лаура Бетти, Нинетто Даволи, Франко Читти, Джозефин Чаплин, Алан Уэбб, Пьер Паоло Пазолини, Дж.П. Ван Дайн, Вернон Добчефф, Адриан Стрит ...
Описание: Действие картины развивается в средневековой Англии на постоялом дворе. В этом фильме режиссер сыграл роль Чосера, который является одним из слушателей четырех новелл, рассказанных путниками. Все новеллы картины пропитаны духом сладострастья и эротики, простотой нравов и юмором средневековой Англии.
Фильм снят по мотивам романа Джеффри Чосера «Кентерберийские рассказы» (The Canterbury Tales, конец 14-го века).
Доп. информация: Диск собран из I racconti di Canterbury_(The Canterbury Tales)_1972_DVD9 R1_[Criterion#633] найденного в сети. (Который на постере)
Бонусы:
Sam Rohdie Interview
Pasolini and the Secret Humiliation of Chaucer
English-Language Inserts
Trailers
Меню: Статичное, озвученное, на английском.
.
Меню неотредактировано, переключение звуковых дорожек и субтитров с пульта.
Фильм автоматически стартует с рус. звук. дорожкой("Кармен Видео").
-
-
-

Награды


-
- -
-

...из книги «3500 кинорецензий»


-
-I racconti di Canterbury_(The Canterbury Tales)_1972_DVD9 R1_[Criterion#633]_Sample_.rar-
-

Точка перехода на второй слой


-
-Синхронизация звук. дорожки(Одноголосый) Нордер
За что ему превеликая благодарность
--Тип релиза: DVD9 (Custom) - BDRip-AVC
Контейнер: DVD-Video
Видео: NTSC 16:9 (720x480) VBR Auto Letterboxed, ~ 6784.24 kbps avg
Аудио 1: Italiano, AC3, 1/0 (C) ch, 384 kbps, Delay 0 mSec
Аудио 2: English, AC3, 1/0 (C) ch, 192 kbps, Delay 0 mSec
Аудио 3: Russian, AC3, 2/0 (L,R) ch, 192 kbps, Delay 0 mSec - MVO R5 "Кармен Видео"
Аудио 4: Russian, AC3, 2/0 (L,R) ch, 192 kbps, Delay 0 mSec - VO
Формат субтитров: prerendered (DVD/IDX+SUB)

MediaInfo

General
Complete name : I racconti di Canterbury_(The Canterbury Tales)_1972_DVD9 R1_[Criterion#633]\VIDEO_TS\VTS_02_2.VOB
Format : MPEG-PS
File size : 1 024 MiB
Duration : 21mn 23s
Overall bit rate mode : Variable
Overall bit rate : 6 690 Kbps
Video
ID : 224 (0xE0)
Format : MPEG Video
Format version : Version 2
Format profile : Main@Main
Format settings, BVOP : Yes
Format settings, Matrix : Custom
Format settings, GOP : Variable
Duration : 21mn 23s
Bit rate mode : Variable
Bit rate : 5 597 Kbps
Maximum bit rate : 9 800 Kbps
Width : 720 pixels
Height : 480 pixels
Display aspect ratio : 16:9
Frame rate : 23.976 fps
Standard : NTSC
Color space : YUV
Chroma subsampling : 4:2:0
Bit depth : 8 bits
Scan type : Progressive
Scan order : 2:3 Pulldown
Compression mode : Lossy
Bits/(Pixel*Frame) : 0.676
Time code of first frame : 01:20:16:21
Time code source : Group of pictures header
Stream size : 857 MiB (84%)
Audio #1
ID : 189 (0xBD)-128 (0x80)
Format : AC-3
Format/Info : Audio Coding 3
Mode extension : CM (complete main)
Format settings, Endianness : Big
Muxing mode : DVD-Video
Duration : 21mn 23s
Bit rate mode : Constant
Bit rate : 384 Kbps
Channel(s) : 1 channel
Channel positions : Front: C
Sampling rate : 48.0 KHz
Bit depth : 16 bits
Compression mode : Lossy
Delay relative to video : -550ms
Stream size : 58.8 MiB (6%)
Audio #2
ID : 189 (0xBD)-129 (0x81)
Format : AC-3
Format/Info : Audio Coding 3
Mode extension : CM (complete main)
Format settings, Endianness : Big
Muxing mode : DVD-Video
Duration : 21mn 23s
Bit rate mode : Constant
Bit rate : 192 Kbps
Channel(s) : 1 channel
Channel positions : Front: C
Sampling rate : 48.0 KHz
Bit depth : 16 bits
Compression mode : Lossy
Delay relative to video : -518ms
Stream size : 29.4 MiB (3%)
Audio #3
ID : 189 (0xBD)-130 (0x82)
Format : AC-3
Format/Info : Audio Coding 3
Mode extension : CM (complete main)
Format settings, Endianness : Big
Muxing mode : DVD-Video
Duration : 21mn 23s
Bit rate mode : Constant
Bit rate : 192 Kbps
Channel(s) : 2 channels
Channel positions : Front: L R
Sampling rate : 48.0 KHz
Bit depth : 16 bits
Compression mode : Lossy
Delay relative to video : -518ms
Stream size : 29.4 MiB (3%)
Audio #4
ID : 189 (0xBD)-131 (0x83)
Format : AC-3
Format/Info : Audio Coding 3
Mode extension : CM (complete main)
Format settings, Endianness : Big
Muxing mode : DVD-Video
Duration : 21mn 23s
Bit rate mode : Constant
Bit rate : 192 Kbps
Channel(s) : 2 channels
Channel positions : Front: L R
Sampling rate : 48.0 KHz
Bit depth : 16 bits
Compression mode : Lossy
Delay relative to video : -518ms
Stream size : 29.4 MiB (3%)
Text #1
ID : 189 (0xBD)-32 (0x20)
Format : RLE
Format/Info : Run-length encoding
Muxing mode : DVD-Video
Duration : 21mn 19s
Delay relative to video : 2s 69ms
Text #2
ID : 189 (0xBD)-33 (0x21)
Format : RLE
Format/Info : Run-length encoding
Muxing mode : DVD-Video
Duration : 21mn 19s
Delay relative to video : 2s 69ms
Text #3
ID : 189 (0xBD)-34 (0x22)
Format : RLE
Format/Info : Run-length encoding
Muxing mode : DVD-Video
Duration : 21mn 15s
Delay relative to video : 5s 139ms
Menu

DVD Info

Title: I racconti di Canterbury_(The Canterbury Tales)_1972_DVD9 R1_[Criterion#633]
Size: 7.93 Gb ( 8 318 974,00 KBytes ) - DVD-9
Enabled regions: 1, 2, 3, 4, 5, 6, 7, 8
VTS_01 :
Play Length: 00:00:00
Video: NTSC 16:9 (720x480) VBR, Auto Letterboxed
VTS_02 :
Play Length: 01:51:14
Video: NTSC 16:9 (720x480) VBR, Auto Letterboxed
Audio:
Italiano, AC3, 1/0 (C) ch, 384 kbps, Delay 0 mSec
English, AC3, 1/0 (C) ch, 192 kbps, Delay 0 mSec
Russian, AC3, 2/0 (L,R) ch, 192 kbps, Delay 0 mSec
Russian, AC3, 2/0 (L,R) ch, 192 kbps, Delay 0 mSec
Subtitles:
English
Russian
VTS_03 :
Play Length: 00:00:55
Video: NTSC 16:9 (720x480) VBR, Auto Letterboxed
VTS_04 :
Play Length: 00:05:38
Video: NTSC 16:9 (720x480) VBR, Auto Letterboxed
Audio:
English (Dolby AC3, 1 ch)
Subtitles:
English
VTS_05 :
Play Length: 00:04:46
Video: NTSC 16:9 (720x480) VBR, Auto Letterboxed
Audio:
Italiano (Dolby AC3, 1 ch)
Subtitles:
English
VTS_06 :
Play Length: 00:13:34
Video: NTSC 16:9 (720x480) VBR, Auto Letterboxed
Audio:
English (Dolby AC3, 1 ch)
Subtitles:
English
VTS_07 :
Play Length: 00:00:20
Video: NTSC 16:9 (720x480) VBR, Auto Pan&Scan
VTS_08 :
Play Length: 00:47:29
Video: NTSC 4:3 (720x480) VBR
Audio:
Italiano (Dolby AC3, 1 ch)
Subtitles:
English
VTS_09 :
Play Length: 00:00:00
Video: NTSC 4:3 (720x480) VBR
* Menus Information *
VIDEO_TS Menu
Video:
NTSC 4:3 (720x480) VBR
Auto Pan&Scan, Auto Letterboxed
English Language Unit :
Title Menu
VTS_01 Menu
Video:
NTSC 16:9 (720x480) VBR
Auto Letterboxed
Audio:
Not specified (Dolby AC3, 1 ch)
English Language Unit :
Root Menu
VTS_02 Menu
Video:
NTSC 16:9 (720x480) VBR
Auto Letterboxed
English Language Unit :
Root Menu
VTS_03 Menu
Video:
NTSC 16:9 (720x480) VBR
Auto Letterboxed
English Language Unit :
Root Menu
VTS_04 Menu
Video:
NTSC 16:9 (720x480) VBR
Auto Letterboxed
English Language Unit :
Root Menu
VTS_05 Menu
Video:
NTSC 16:9 (720x480) VBR
Auto Letterboxed
English Language Unit :
Root Menu
VTS_06 Menu
Video:
NTSC 16:9 (720x480) VBR
Auto Letterboxed
English Language Unit :
Root Menu
VTS_07 Menu
Video:
NTSC 16:9 (720x480) VBR
Auto Pan&Scan
English Language Unit :
Root Menu
VTS_08 Menu
Video:
NTSC 4:3 (720x480) VBR
English Language Unit :
Root Menu
VTS_09 Menu
Video:
NTSC 4:3 (720x480) VBR
Audio:
Not specified (Dolby AC3, 1 ch)
English Language Unit :
Root Menu

П. О.

PgcDemux 1.2.0.5 - разделение компонентов диска на файлы;
BeSweetv1.5b31+BeLight 0.21 - AC3 -> Wav
Sound Forge pro 10 - Wav -> AC3
MaestroSBT-Unicode-2.6.2.1 - Создание субтитров
DVDSubEdit -- Version 1.52 - Правка (цветовых схем) субтитров
MuxMan DVD authoring Professional 1.4.4 - мультиплексирование и авторинг DVD;
DVDRemake Pro 3.6.4 - реавторинг DVD;
DVD Shrink 3.2 - Сэмпл
VLC - Скриншоты-
-
-

-
-
-BeSweet v1.5b31 by DSPguru.
--------------------------
Using azid.dll v1.9 (b922) by Midas (midas@egon.gyaloglo.hu).
Logging start : 11/13/14 , 13:31:54.
BeSweet.exe -core( -input C:\Temp\CENTeRBERY\AudioFile_80.ac3 -output C:\Temp\CENTeRBERY\AudioFile_80.wav -2ch -logfile C:\Temp\CENTeRBERY\AudioFile_80.log ) -azid( -s mono -c normal -L -3db )
[00:00:00:000] +------- BeSweet -----
[00:00:00:000] | Input : C:\Temp\CENTeRBERY\AudioFile_80.ac3
[00:00:00:000] | Output: C:\Temp\CENTeRBERY\AudioFile_80.wav
[00:00:00:000] | Floating-Point Process: No
[00:00:00:000] +-------- AZID -------
[00:00:00:000] | Input Channels Mode: 1/0, Bitrate: 384kbps
[00:00:00:000] | Output Stereo mode: Dolby surround 2 compatible
[00:00:00:000] | Total Gain: 0.000dB, Compression: Normal
[00:00:00:000] | LFE levels: To LR -3.0dB, To LFE 0.0dB
[00:00:00:000] | Center mix level: BSI
[00:00:00:000] | Surround mix level: BSI
[00:00:00:000] | Dialog normalization: No
[00:00:00:000] | Rear channels filtering: No
[00:00:00:000] | Source Sample-Rate: 48.0KHz
[00:00:00:000] +---------------------
[01:51:20:800] Conversion Completed !
[01:51:20:800] Actual Avg. Bitrate : 250kbps
[teatrix.ru].t7292.torrent 
Торрент: Зарегистрирован [ 2015-10-11 11:22 ] · 121949706FB13F9D211202DDD1792FFF22649200

Скачать .torrent

Скачать

42 KB

Статус: проверено
Скачан: 0 раз
Размер: 7.93 GB
terms.php



Быстрый ответ

Имя:

      
Для отправки сообщений необходимо включить JavaScript
Показать сообщения:    

Текущее время: 08-Дек 01:18

Часовой пояс: UTC + 3


Вы можете начинать темы
Вы можете отвечать на сообщения
Вы не можете редактировать свои сообщения
Вы не можете удалять свои сообщения
Вы не можете голосовать в опросах
Вы не можете прикреплять файлы к сообщениям
Вы можете скачивать файлы