Человек кусает собаку / C'est arrive pres de chez vous / (Реми Бельво /Rémy Belvaux, Андре Бонзель /André Bonzel, Бенуа Пульворд /Benoît Poelvoorde)[1992, Бельгия, Криминал, DVD5(Custom)]MVO+DVO+Sub Eng, Rus / Criterion Collection#165


Статистика раздачи [Обновить пиров]
Размер:  4.35 GB   |    Зарегистрирован:  1 год 1 месяц   |    Скачан:  0 раз

Полного источника не было: Никогда

 
   
 
 
 

[Цитировать]

Человек кусает собаку / C'est arrive pres de chez vous / Man Bites Dog / Criterion Collection#165 «A Killer Comedy»
Страна:Бельгия
Студия:Les Artistes Anonymes.
Жанр:Криминал, Драма, Комедия, Ужасы
Год выпуска:1992
Продолжительность:01:36:15
Перевод 1:Профессиональный (многоголосый закадровый)Перевод 2:Профессиональный (двухголосый закадровый)Cубтитры:Английские, Русские
Оригинальная аудиодорожка:Французский
Премьера (мир):20.08.1992
Режиссер: Реми Бельво /Remy Belvaux, Андре Бонзель /Andre Bonzel, Бенуа Пульворд /Benoit Poelvoorde
В ролях:Бенуа Пульворд, Реми Бельво, Жаклин Пульворд-Паппер, Нелли Паппер, Эктор Паппер, Женни Драй, Малу Маду, Вилли Ванденбрук, Рашель Деман, Андре Лэм
Описание: Познакомьтесь — Бен — серийный убийца, насильник и вор — очень симпатичная личность. Образован, начитан, играет на музыкальном инструменте, любящий и заботливый сын, одним словом — примерный член общества. Ну иногда, бывает конечно, засидится в местном баре, ну примет лишнего, ну а с кем не бывает? Зато он запросто может выдать, сидя за столом в ресторане, белый стих, или порассуждать о влиянии красного кирпича, используемого для строительства жилых кварталов, на неконтролируемые всплески насилия в обществе. Между делом, он убивает людей, убивает много, цинично, но через какое-то время ты к этому просто привыкаешь, и это становится само собой разумеющимся….

Доп. информация:Исходник найден в сети.Профессиональный (многоголосый закадровый) и русские субтитрыПрофессиональный (двухголосый закадровый)Пособие по безработице - не для Даниэля-Даниэля-звук и субтитрыРеавторинг Нордер.
Огромное Спасибо Всем, без чьей помощи этот релиз не состоялся бы!Сценарий:Реми Бельво, Андре Бонзель, Бенуа Пульворд
Продюсер:Реми Бельво, Андре Бонзель, Бенуа Пульворд
Оператор:Андре Бонзель
Композитор:Джон Эбден, Саймон Мюррэй, Гийом ЛеМойн
Монтаж:Реми Бельво

Рецензия

Софт

PGCDemux (извлечение).
BeSweet, Sony Vegas 9 (звук).
DVD-lab PRO 2, Subtitle Workshop (субтитры).
MuxMan (сборка). DvdReMakePro (финал).
Меню:Английский, статичное, озвученное.
Сэмпл:http://multi-up.com/1012481
Тип релиза:DVDх5 (Custom)
Контейнер:DVD-Video
Видео:NTSC 16:9 (720x480) VBR, Auto Letterboxed, 4374 Кбит/сек, 29,970 кадров/сек
Аудио 1:Русский:AC3, 2 ch, 48.0 KHz, 192 Кбит/сек / Профессиональный (многоголосый закадровый)
Аудио 2:Русский:AC3, 2 ch, 48.0 KHz, 192 Кбит/сек / Профессиональный (двухголосый закадровый)Аудио 3:Французский:AC3, 1 ch, 48.0 KHz, 192 Кбит/сек / (Оригинал)Формат субтитров:prerendered (DVD/IDX+SUB)

Dvd Info

Title: Man Bites Dog DVD-5_Custom_Criterion #165
Size: 4.35 Gb ( 4 560 624,00 KBytes ) - DVD-5
Enabled regions: 1, 2, 3, 4, 5, 6, 7, 8
VTS_01 :
Play Length: 01:36:15
Video: NTSC 16:9 (720x480) VBR, Auto Letterboxed
Audio:
Russian, AC3, 2/0 (L,R) ch, 192 kbps, Delay 0 mSec
Russian, AC3, 2/0 (L,R) ch, 192 kbps, Delay 0 mSec
Francais, AC3, 1/0 (C) ch, 192 kbps, Delay 0 mSec
Subtitles:
English
Russian
VTS_02 :
Play Length: 00:08:58
Video: NTSC 4:3 (720x480) VBR
Audio:
English, AC3, 1/0 (C) ch, 192 kbps, Delay 0 mSec
VTS_03 :
Play Length: 00:11:58
Video: NTSC 4:3 (720x480) VBR
Audio:
Russian, AC3, 2/0 (L,R) ch, 192 kbps, Delay 0 mSec
Francais, AC3, 1/0 (C) ch, 192 kbps, Delay 0 mSec
Subtitles:
English
Russian
VTS_04 :
Play Length: 00:01:43
Video: NTSC 16:9 (720x480) VBR, Auto Letterboxed
Audio:
Francais, AC3, 1/0 (C) ch, 192 kbps, Delay 0 mSec
Subtitles:
English
VTS_05 :
Play Length: 00:00:20
Video: NTSC 4:3 (720x480) VBR
Audio:
English, AC3, 1/0 (C) ch, 192 kbps, Delay 0 mSec

MediaInfo


Общее
Полное имя: F:\Man Bites Dog DVD-5_Custom_Criterion #165\VIDEO_TS\VTS_01_1.VOB
Формат : MPEG-PS
Размер файла : 1024 Мбайт
Продолжительность : 28 м.
Режим общего битрейта : Переменный
Общий поток : 5051 Кбит/сек
Видео
Идентификатор : 224 (0xE0)
Формат : MPEG Video
Версия формата : Version 2
Профиль формата : Main@Main
Параметр BVOP формата : Да
Параметр матрицы формата : Выборочная
Параметр GOP формата : Variable
Продолжительность : 28 м.
Вид битрейта : Переменный
Битрейт : 4374 Кбит/сек
Максимальный битрейт : 9800 Кбит/сек
Ширина : 720 пикселей
Высота : 480 пикселей
Соотношение сторон : 16:9
Частота кадров : 29,970 кадров/сек
Стандарт вещания : NTSC
Цветовое пространство : YUV
Субдискретизация насыщенности : 4:2:0
Битовая глубина : 8 бит
Тип развёртки : Чересстрочная
Порядок развёртки : Верхнее поле первое
Метод сжатия : С потерями
Бит/(Пиксели*Кадры) : 0.422
Временной код первого кадра : 00:00:00:00
Оригинал временного кода : Group of pictures header
Размер потока : 887 Мбайт (87%)
Аудио #1
Идентификатор : 189 (0xBD)-128 (0x80)
Формат : AC-3
Формат/Информация : Audio Coding 3
Расширение режима : CM (complete main)
Параметр Endianness формата : Big
Режим смешивания : DVD-Video
Продолжительность : 28 м.
Вид битрейта : Постоянный
Битрейт : 192 Кбит/сек
Каналы : 2 канала
Расположение каналов : Front: L R
Частота : 48,0 КГц
Битовая глубина : 16 бит
Метод сжатия : С потерями
Размер потока : 38,9 Мбайт (4%)
Аудио #2
Идентификатор : 189 (0xBD)-129 (0x81)
Формат : AC-3
Формат/Информация : Audio Coding 3
Расширение режима : CM (complete main)
Параметр Endianness формата : Big
Режим смешивания : DVD-Video
Продолжительность : 28 м.
Вид битрейта : Постоянный
Битрейт : 192 Кбит/сек
Каналы : 2 канала
Расположение каналов : Front: L R
Частота : 48,0 КГц
Битовая глубина : 16 бит
Метод сжатия : С потерями
Размер потока : 38,9 Мбайт (4%)
Аудио #3
Идентификатор : 189 (0xBD)-130 (0x82)
Формат : AC-3
Формат/Информация : Audio Coding 3
Расширение режима : CM (complete main)
Параметр Endianness формата : Big
Режим смешивания : DVD-Video
Продолжительность : 28 м.
Вид битрейта : Постоянный
Битрейт : 192 Кбит/сек
Каналы : 1 канал
Расположение каналов : Front: C
Частота : 48,0 КГц
Битовая глубина : 16 бит
Метод сжатия : С потерями
Размер потока : 38,9 Мбайт (4%)
Текст #1
Идентификатор : 189 (0xBD)-34 (0x22)
Формат : RLE
Формат/Информация : Run-length encoding
Режим смешивания : DVD-Video
Продолжительность : 27 м.
Задержка видео : 17 с.
Текст #2
Идентификатор : 189 (0xBD)-32 (0x20)
Формат : RLE
Формат/Информация : Run-length encoding
Режим смешивания : DVD-Video
Текст #3
Идентификатор : 189 (0xBD)-33 (0x21)
Формат : RLE
Формат/Информация : Run-length encoding
Режим смешивания : DVD-Video

Скриншоты меню

Скриншоты

Скриншоты доп. материалов


Полиграфия+Буклет










Буклет-http://multi-up.com/1012667
[teatrix.ru].t7294.torrent 
Торрент: Зарегистрирован [ 2015-10-11 11:22 ] · 1B821139D84F1290B01D264E9944B22DB088780D

Скачать .torrent

Скачать

24 KB

Статус: проверено
Скачан: 0 раз
Размер: 4.35 GB
terms.php



Быстрый ответ

Имя:

      
Для отправки сообщений необходимо включить JavaScript
Показать сообщения:    

Текущее время: 06-Дек 15:06

Часовой пояс: UTC + 3


Вы можете начинать темы
Вы можете отвечать на сообщения
Вы не можете редактировать свои сообщения
Вы не можете удалять свои сообщения
Вы не можете голосовать в опросах
Вы не можете прикреплять файлы к сообщениям
Вы можете скачивать файлы