Кармен / Carmen (Карлос Саура / Carlos Saura) [1983, Испания, Мюзикл, Драма, Мелодрама, Музыка, DVD9 (Custom)] MVO + Sub Eng, Rus(3 вида) + Original Spa / Criterion.Eclipse Series #6


Статистика раздачи [Обновить пиров]
Размер:  6.38 GB   |    Зарегистрирован:  1 год 1 месяц   |    Скачан:  0 раз

Полного источника не было: Никогда

 
   
 
 
 

[Цитировать]

Кармен / Carmen / Criterion.Eclipse Series #6 «They're dancing a fine line between fantasy and reality»
Страна:Испания
Студия:Emiliano Piedra, Television Espanola (TVE).
Жанр:Мюзикл, Драма, Мелодрама, Музыка
Год выпуска:1983
Продолжительность:01:41:48
Перевод :Профессиональный (многоголосый закадровый)
Cубтитры:Английские, Русские(3 вида)
Оригинальная аудиодорожка:Испанский
Премьера (мир):6.05.1983
Режиссер:Карлос Саура / Carlos Saura
В ролях:Антонио Гадес, Лаура дель Соль, Пако де Лусия, Марисоль, Кристина Ойос, Хуан Антонио Хименес, Хосе Йепес, Себастьян Морено, Гомес де Херес, Маноло Севилья
Описание: Хореограф Антонио набирает труппу для постановки балета «Кармен». Во время репетиций хореограф поддается чарам настоящей Кармен, которая исполняет главную роль. Музыка и представление так захватывают героев, что правда жизни превращается в спектакль, а само действо ведет к кровавой развязке.

Доп. информация:Исходник найден в сети.Профессиональный (многоголосый, закадровый) и русские субтитры1Изначально русская дорожка дутая, переведена в AC3, 2 ch.Русские субтитры 2-(mea Ork), 3-(subtitry)взяты из раздачи-http://teatrix.ru/viewtopic.php?t=1707Реавторинг Нордер.
Огромное Спасибо Всем, без чьей помощи этот релиз не состоялся бы!Сценарий:Карлос Саура, Антонио Гадес, Проспер МеримеПродюсер:Эмильяно ПьедраОператор:Теодоро Эскамилья
Композитор:Пако де Лусия
Художник:Феликс Мурсия, Тереза Ниэто
Монтаж:Педро дель Рей
Саура, Карлос-https://ru.wikipedia.org/wiki/Саура,_Карлос Фильм-https://en.wikipedia.org/wiki/Carmen_(1983_film)Награды и номинации">

Это интересноСаура, Карлос-https://ru.wikipedia.org/wiki/Саура,_Карлос Фильм-https://en.wikipedia.org/wiki/Carmen_(1983_film)Награды и номинации


Рецензия

Софт

PGCDemux (извлечение).
BeSweet, Sony Vegas 9 (звук).
DVD-lab PRO 2, Subtitle Workshop (субтитры).
MuxMan (сборка). DvdReMakePro (финал).
Меню:Английский, статичное, неозвученное.
Сэмпл:http://multi-up.com/1011962
Тип релиза:DVDх9 (Custom)
Контейнер:DVD-Video
Видео:NTSC 16:9 (720x480) VBR, Auto Letterboxed, 8345 Кбит/сек, 29,970 кадров/сек
Аудио 1:Русский:AC3, 2 ch, 48.0 KHz, 192 Кбит/сек
Аудио 2:Испанский:AC3, 1 ch, 48.0 KHz, 192 Кбит/сек / (Оригинал)
Формат субтитров:prerendered (DVD/IDX+SUB)

Dvd Info

Title: Carmen DVD-9_Custom_Criterion_Eclipse Series #6
Size: 6.38 Gb ( 6 692 810,00 KBytes ) - DVD-9
Enabled regions: 1, 2, 3, 4, 5, 6, 7, 8
VTS_01 :
Play Length: 00:00:00
Video: NTSC 16:9 (720x480) VBR, Auto Letterboxed
VTS_02 :
Play Length: 01:41:48
Video: NTSC 16:9 (720x480) VBR, Auto Letterboxed
Audio:
Russian, AC3, 2/0 (L,R) ch, 192 kbps, Delay 0 mSec
Espanol, AC3, 1/0 (C) ch, 192 kbps, Delay 0 mSec
Subtitles:
English
Russian
Russian
Russian
VTS_03 :
Play Length: 00:00:20
Video: NTSC 16:9 (720x480) VBR, Auto Pan&Scan
VTS_04 :
Play Length: 00:00:00
Video: NTSC 4:3 (720x480) VBR

MediaInfo


Общее
Полное имя: F:\Carmen DVD-9_Custom_Criterion_Eclipse Series #6\VIDEO_TS\VTS_02_1.VOB
Формат : MPEG-PS
Размер файла : 1024 Мбайт
Продолжительность : 16 м.
Режим общего битрейта : Переменный
Общий поток : 8906 Кбит/сек
Видео
Идентификатор : 224 (0xE0)
Формат : MPEG Video
Версия формата : Version 2
Профиль формата : Main@Main
Параметр BVOP формата : Да
Параметр матрицы формата : Выборочная
Параметр GOP формата : M=3, N=12
Продолжительность : 16 м.
Вид битрейта : Переменный
Битрейт : 8345 Кбит/сек
Максимальный битрейт : 9588 Кбит/сек
Ширина : 720 пикселей
Высота : 480 пикселей
Соотношение сторон : 16:9
Частота кадров : 29,970 кадров/сек
Стандарт вещания : NTSC
Цветовое пространство : YUV
Субдискретизация насыщенности : 4:2:0
Битовая глубина : 8 бит
Метод сжатия : С потерями
Бит/(Пиксели*Кадры) : 0.806
Временной код первого кадра : 09:59:39:26
Оригинал временного кода : Group of pictures header
Размер потока : 959 Мбайт (94%)
Аудио #1
Идентификатор : 189 (0xBD)-128 (0x80)
Формат : AC-3
Формат/Информация : Audio Coding 3
Расширение режима : CM (complete main)
Параметр Endianness формата : Big
Режим смешивания : DVD-Video
Продолжительность : 16 м.
Вид битрейта : Постоянный
Битрейт : 192 Кбит/сек
Каналы : 2 канала
Расположение каналов : Front: L R
Частота : 48,0 КГц
Битовая глубина : 16 бит
Метод сжатия : С потерями
Размер потока : 22,1 Мбайт (2%)
Аудио #2
Идентификатор : 189 (0xBD)-129 (0x81)
Формат : AC-3
Формат/Информация : Audio Coding 3
Расширение режима : CM (complete main)
Параметр Endianness формата : Big
Режим смешивания : DVD-Video
Продолжительность : 16 м.
Вид битрейта : Постоянный
Битрейт : 192 Кбит/сек
Каналы : 1 канал
Расположение каналов : Front: C
Частота : 48,0 КГц
Битовая глубина : 16 бит
Метод сжатия : С потерями
Размер потока : 22,1 Мбайт (2%)
Текст #1
Идентификатор : 189 (0xBD)-32 (0x20)
Формат : RLE
Формат/Информация : Run-length encoding
Режим смешивания : DVD-Video
Текст #2
Идентификатор : 189 (0xBD)-33 (0x21)
Формат : RLE
Формат/Информация : Run-length encoding
Режим смешивания : DVD-Video
Текст #3
Идентификатор : 189 (0xBD)-34 (0x22)
Формат : RLE
Формат/Информация : Run-length encoding
Режим смешивания : DVD-Video
Текст #4
Идентификатор : 189 (0xBD)-35 (0x23)
Формат : RLE
Формат/Информация : Run-length encoding
Режим смешивания : DVD-Video
Текст #5
Идентификатор : 189 (0xBD)-36 (0x24)
Формат : RLE
Формат/Информация : Run-length encoding
Режим смешивания : DVD-Video

Скриншоты меню

Скриншоты

Полиграфия







[teatrix.ru].t7295.torrent 
Торрент: Зарегистрирован [ 2015-10-11 11:22 ] · 3EC226BC0E2CF5A2B855448A20ED366205816C69

Скачать .torrent

Скачать

34 KB

Статус: проверено
Скачан: 0 раз
Размер: 6.38 GB
terms.php



Быстрый ответ

Имя:

      
Для отправки сообщений необходимо включить JavaScript
Показать сообщения:    

Текущее время: 05-Дек 21:35

Часовой пояс: UTC + 3


Вы можете начинать темы
Вы можете отвечать на сообщения
Вы не можете редактировать свои сообщения
Вы не можете удалять свои сообщения
Вы не можете голосовать в опросах
Вы не можете прикреплять файлы к сообщениям
Вы можете скачивать файлы