Жизнь богемы / La vie de bohème (Аки Каурисмяки / Aki Kaurismäki) [1992, Франция, Германия, Швеция, Финляндия, Драма, Комедия, DVD9 (Custom)] MVO (R5, лицензия) + AVO (А. Алексеев) + Sub Eng, Rus + Original Fre / Criterion Collection#693


Статистика раздачи [Обновить пиров]
Размер:  7.23 GB   |    Зарегистрирован:  1 год 1 месяц   |    Скачан:  0 раз

Полного источника не было: Никогда

 
   
 
 
 

[Цитировать]

Жизнь богемы / La vie de boheme / Criterion Collection#693
Страна:Франция, Германия, Швеция, Финляндия
Студия:Canal+ [fr], Centre National de la Cinematographie (CNC), Films A2, Pandora Filmproduktion GmbH, Pyramide Productions, Sofinergie 2, Sputnik Oy, Svenska Filminstitutet (SFI).
Жанр:Драма, Комедия
Год выпуска:1992
Продолжительность:01:42:53
Перевод 1:Профессиональный (многоголосый закадровый) R5, лицензияПеревод 2:Авторский (одноголосый закадровый) А. АлексеевCубтитры:Английские, Русские(2 вида)
Оригинальная аудиодорожка:Французский
Премьера (мир):18.02.1992
Режиссер:Аки Каурисмяки / Aki Kaurismaki
В ролях:Матти Пеллонпяя — Родольфо, художник
Эвелин Диди — Мими
Андре Вильм — Марсель Маркс, писатель
Кари Вяянянен — Шонар, композитор
Кристина Мурильо — Мюзетта
Жан-Пьер Лео — Бланшерон
Карлос Сальгадо — официант
Алексис Ницер — Бернар
Сильви ван ден Эльзен — мадмуазель Бернар
собака Аки Каурисмяки по кличке Лайка — Бодлер
Описание: Трое художников — албанец Родольфо, француз Марсель и ирландец Шонар — оказываются в Париже без гроша в кармане. Они занимаются чистым искусством и искренне считают себя непризнанными гениями. Жизнь в двух шагах от успеха и в шаге от пропасти не дает им расслабиться, однако в их жизни находится место и любви, и трогательным попыткам перехитрить судьбу.

Доп. информация:Исходник найден в сети.Русский звук и субтитрыРеавторинг Нордер.
Огромное Спасибо Всем, без чьей помощи этот релиз не состоялся бы!Сценарий:Аки Каурисмяки, Анри Мюрже
Продюсер:Клаус Хейдеманн, Аки Каурисмяки, Френсис Бьеспфлуг
Оператор:Тимо Салминен
Художник:Джон Эбден, Саймон Мюррэй, Гийом ЛеМойн
Монтаж:Вейкко Аалтонен
Каурисмяки, Аки-https://ru.wikipedia.org/wiki/Каурисмяки,_Аки Фильм-https://ru.wikipedia.org/wiki/Жизнь_богемыНаграды и номинации">

Это интересноКаурисмяки, Аки-https://ru.wikipedia.org/wiki/Каурисмяки,_Аки Фильм-https://ru.wikipedia.org/wiki/Жизнь_богемыНаграды и номинации


Рецензия

alexeimor(Кинопоиск)Так живут талантыФильмы финского режиссера Аки Каурисмяки сравнимы с повестями раннего Достоевского — «Бедные люди», «Белые ночи», «Униженные и оскорбленные». «Жизнь богемы» — один из самых точных сюжетов существования творческого «дна» — не гламурных звезд шоу-бизнеса, а настоящих, но непризнанных творцов.
Главный герой драмы — художник, его картины часто покупают богатые бездельники, а он на эти деньги может хотя бы раз в жизни сводить девушку в ресторан. Правда, деньги у него тут же крадут, а он оказывается в полиции. Другой герой — писатель, который никак не может издать свой роман. Искренне верящие в свою гениальность, но при этом очень трогательные, подчас наивные люди. Они могут отдать последнюю рубаху, чтобы спасти умирающего человека.
Киноязык Каурисмяки далек от метафор и различных аллюзий, это отрывки из реальной жизни. Поразительно точно режиссер изображает творческий конфликт — он у Каурисмяки полностью лишен внешних выражений, глубоко спрятан за старыми сюртуками героев.
Прекрасная стилизация под быт 50-х годов — черно-белое изображение, послевоенные автомобили, маленькие квартирки с убогим убранством, дешевое вино в таких же дешевых и тесных кафешках. А за всем этим — трагедия творческих людей, но трагедия, соседствующая с комедией…
Превосходный, атмосферный и чуткий фильм. Настоящий образец гуманизма.
10 из 10

Софт

PGCDemux (извлечение).
BeSweet, Sony Vegas 9 (звук).
DVD-lab PRO 2, Subtitle Workshop (субтитры).
MuxMan (сборка). DvdReMakePro (финал).

Бонусы:(Без перевода)

• Andre Wilms interview (12 min)
• Making-of documentary Where is Musette? (52 min)
Меню:Английский, статичное, озвученное.
Сэмпл:https://www.sendspace.com/file/wy5bhx
Тип релиза:DVDх9 (Custom) - BDRemux 1080p
Контейнер:DVD-Video
Видео:NTSC 16:9 (720x480) VBR, Auto Letterboxed, 5999 Кбит/сек, 23,976 кадра/сек
Аудио 1:Русский:AC3, 1 ch, 48.0 KHz, 128 Кбит/сек / R5, лицензия
Аудио 2:Русский:AC3, 1 ch, 48.0 KHz, 128 Кбит/сек / А. АлексеевАудио 3:Французский:AC3, 1 ch, 48.0 KHz, 384 Кбит/сек / (Оригинал)Формат субтитров:prerendered (DVD/IDX+SUB)

Dvd Info

Title: La vie de boheme DVD-9_Custom_Criterion#693
Size: 7.23 Gb ( 7 582 500,00 KBytes ) - DVD-9
Enabled regions: 1, 2, 3, 4, 5, 6, 7, 8
VTS_01 :
Play Length: 00:00:00
Video: NTSC 16:9 (720x480) VBR, Auto Letterboxed
VTS_02 :
Play Length: 00:11:27
Video: NTSC 16:9 (720x480) VBR, Auto Letterboxed
Audio:
English, AC3, 1/0 (C) ch, 192 kbps, Delay 0 mSec
Subtitles:
English
VTS_03 :
Play Length: 01:42:53
Video: NTSC 16:9 (720x480) VBR, Auto Letterboxed
Audio:
Russian (Dolby AC3, 1 ch)
Russian (Dolby AC3, 1 ch)
Francais (Dolby AC3, 1 ch)
Subtitles:
English
Russian
Russian
VTS_04 :
Play Length: 00:00:20
Video: NTSC 16:9 (720x480) VBR, Auto Pan&Scan
VTS_05 :
Play Length: 00:00:20
Video: NTSC 16:9 (720x480) VBR, Auto Letterboxed
VTS_06 :
Play Length: 00:51:50
Video: NTSC 4:3 (720x480) VBR
Audio:
Francais, AC3, 1/0 (C) ch, 192 kbps, Delay 0 mSec
Subtitles:
English
VTS_07 :
Play Length: 00:00:00
Video: NTSC 4:3 (720x480) VBR

MediaInfo


Общее
Полное имя: F:\La vie de boheme DVD-9_Custom_Criterion#693\VIDEO_TS\VTS_03_1.VOB
Формат : MPEG-PS
Размер файла : 1024 Мбайт
Продолжительность : 21 м.
Режим общего битрейта : Переменный
Общий поток : 6774 Кбит/сек
Видео
Идентификатор : 224 (0xE0)
Формат : MPEG Video
Версия формата : Version 2
Профиль формата : Main@Main
Параметр BVOP формата : Да
Параметр матрицы формата : Выборочная
Параметр GOP формата : Variable
Продолжительность : 21 м.
Вид битрейта : Переменный
Битрейт : 5999 Кбит/сек
Максимальный битрейт : 9800 Кбит/сек
Ширина : 720 пикселей
Высота : 480 пикселей
Соотношение сторон : 16:9
Частота кадров : 23,976 кадра/сек
Стандарт вещания : NTSC
Цветовое пространство : YUV
Субдискретизация насыщенности : 4:2:0
Битовая глубина : 8 бит
Тип развёртки : Прогрессивная
Порядок развёртки : 2:3 Pulldown
Метод сжатия : С потерями
Бит/(Пиксели*Кадры) : 0.724
Временной код первого кадра : 00:59:40:00
Оригинал временного кода : Group of pictures header
Размер потока : 907 Мбайт (89%)
Аудио #1
Идентификатор : 189 (0xBD)-128 (0x80)
Формат : AC-3
Формат/Информация : Audio Coding 3
Расширение режима : CM (complete main)
Параметр Endianness формата : Big
Режим смешивания : DVD-Video
Продолжительность : 21 м.
Вид битрейта : Постоянный
Битрейт : 128 Кбит/сек
Каналы : 1 канал
Расположение каналов : Front: C
Частота : 48,0 КГц
Битовая глубина : 16 бит
Метод сжатия : С потерями
Размер потока : 19,3 Мбайт (2%)
Аудио #2
Идентификатор : 189 (0xBD)-129 (0x81)
Формат : AC-3
Формат/Информация : Audio Coding 3
Расширение режима : CM (complete main)
Параметр Endianness формата : Big
Режим смешивания : DVD-Video
Продолжительность : 21 м.
Вид битрейта : Постоянный
Битрейт : 128 Кбит/сек
Каналы : 1 канал
Расположение каналов : Front: C
Частота : 48,0 КГц
Битовая глубина : 16 бит
Метод сжатия : С потерями
Размер потока : 19,3 Мбайт (2%)
Аудио #3
Идентификатор : 189 (0xBD)-130 (0x82)
Формат : AC-3
Формат/Информация : Audio Coding 3
Расширение режима : CM (complete main)
Параметр Endianness формата : Big
Режим смешивания : DVD-Video
Продолжительность : 21 м.
Вид битрейта : Постоянный
Битрейт : 384 Кбит/сек
Каналы : 1 канал
Расположение каналов : Front: C
Частота : 48,0 КГц
Битовая глубина : 16 бит
Метод сжатия : С потерями
Размер потока : 58,0 Мбайт (6%)
Текст #1
Идентификатор : 189 (0xBD)-32 (0x20)
Формат : RLE
Формат/Информация : Run-length encoding
Режим смешивания : DVD-Video
Текст #2
Идентификатор : 189 (0xBD)-33 (0x21)
Формат : RLE
Формат/Информация : Run-length encoding
Режим смешивания : DVD-Video
Текст #3
Идентификатор : 189 (0xBD)-34 (0x22)
Формат : RLE
Формат/Информация : Run-length encoding
Режим смешивания : DVD-Video
Текст #4
Идентификатор : 189 (0xBD)-35 (0x23)
Формат : RLE
Формат/Информация : Run-length encoding
Режим смешивания : DVD-Video

Скриншоты меню


Скриншоты

Скриншоты доп. материалов


[teatrix.ru].t7301.torrent 
Торрент: Зарегистрирован [ 2015-10-11 11:22 ] · 2D5868FFD6EA5B9812B7B76F69D65423ABE0F446

Скачать .torrent

Скачать

38 KB

Статус: проверено
Скачан: 0 раз
Размер: 7.23 GB
terms.php



Быстрый ответ

Имя:

      
Для отправки сообщений необходимо включить JavaScript
Показать сообщения:    

Текущее время: 03-Дек 03:22

Часовой пояс: UTC + 3


Вы можете начинать темы
Вы можете отвечать на сообщения
Вы не можете редактировать свои сообщения
Вы не можете удалять свои сообщения
Вы не можете голосовать в опросах
Вы не можете прикреплять файлы к сообщениям
Вы можете скачивать файлы