Сквозь оливы / Через оливы / Zire darakhatan zeyton / Through the Olive Trees (Аббас Киаростами / Abbas Kiarostami) [1994, Франция, Иран, драма, DVD9 (Custom)] [16:9 PAL R2] DVO (Киностудия "Кипарис") + Sub Fre + Original Ara


Статистика раздачи [Обновить пиров]
Размер:  7.86 GB   |    Зарегистрирован:  1 год 1 месяц   |    Скачан:  0 раз

Полного источника не было: Никогда

 
   
 
 
 

[Цитировать]

Сквозь оливы / Через оливы / Zire darakhatan zeyton / Through the Olive Trees
16:9 PAL R2
Страна: Франция, Иран
Студия: Abbas Kiarostami Productions, CiBy 2000, Farabi Cinema Foundation
Жанр: драма
Год выпуска: 1994
Продолжительность: 01:39:01
Перевод: Профессиональный (двухголосый закадровый) - Киностудия "Кипарис"(Анна Каменкова, Владимир Вихров)
Cубтитры: французские
Оригинальная аудиодорожка: Арабский
Режиссер: Аббас Киаростами / Abbas Kiarostami
В ролях: Мохамед Али Кешаварц, Фархад Херадманд, Зафирех Шива, Хуссейн Резаи, Тахерех Ладаньян, Hocine Redai, Zahra Nourouzi, Nasret Betri, Азим Азиз Ниа, Astadouli Babani ...
Описание: Режиссер выезжает на съемки фильма. Деревенские жители Хуссейн и Фархун играют молодоженов, причем в «реальной» жизни их связывают гораздо более сложные любовные отношения.
Доп. информация: Диск собран из Zire darakhatan zeyton_(Through the Olive Trees)_1994_DVD9 R2 найденного в сети. (Который на постере)
Бонусы:
Préface de Jean-Michel Frodon, directeur de la rédaction des Cahiers du Cinéma (7')
Au travers des oliviers : coulisses (32')
Séquences commentées par Jean-Michel Frodon (16')
Entretien avec Abbas Kiarostami (31')
La collection Abbas Kiarostami (8')
Меню: Анимированное, озвученное на французском..
.
.
Меню неотредактировано, переключение звуковых дорожек и субтитров с пульта.
Фильм автоматический стартует с рус. звук. дорожкой.
- -
-

Награды


-
-Zire darakhatan zeyton_(Through the Olive Trees)_1994_DVD9 R2_Sample_.rar-
-

Точка перехода на второй слой


-
-Синхронизация звук. дорожек Нордер
За что ему превеликая благодарность
--Тип релиза: DVD9 (Custom)
Контейнер: DVD-Video
Видео: PAL 16:9 (720x576) VBR Auto Letterboxed, ~ 5867.23 kbps avg
Аудио 1: Russian, AC3, 2/0 (L,R) ch, 192 kbps, Delay 0 mSec
Аудио 2: Arabic, AC3, 2/0 (L,R) ch, 192 kbps, Delay 0 mSec
Формат субтитров: prerendered (DVD/IDX+SUB)

MediaInfo

General
Complete name : Zire darakhatan zeyton_(Through the Olive Trees)_1994_DVD9 R2\VIDEO_TS\VTS_01_2.VOB
Format : MPEG-PS
File size : 1 024 MiB
Duration : 26mn 43s
Overall bit rate mode : Variable
Overall bit rate : 5 357 Kbps
Video
ID : 224 (0xE0)
Format : MPEG Video
Format version : Version 2
Format profile : Main@Main
Format settings, BVOP : Yes
Format settings, Matrix : Default
Format settings, GOP : M=3, N=4
Duration : 26mn 43s
Bit rate mode : Variable
Bit rate : 4 867 Kbps
Maximum bit rate : 8 000 Kbps
Width : 720 pixels
Height : 576 pixels
Display aspect ratio : 2.40:1
Frame rate : 25.000 fps
Standard : PAL
Color space : YUV
Chroma subsampling : 4:2:0
Bit depth : 8 bits
Scan type : Interlaced
Scan order : Top Field First
Compression mode : Lossy
Bits/(Pixel*Frame) : 0.469
Time code of first frame : 10:25:01:02
Time code source : Group of pictures header
Stream size : 930 MiB (91%)
Color primaries : BT.601 PAL
Transfer characteristics : BT.470 System B, BT.470 System G
Matrix coefficients : BT.601
Audio #1
ID : 189 (0xBD)-128 (0x80)
Format : AC-3
Format/Info : Audio Coding 3
Mode extension : CM (complete main)
Format settings, Endianness : Big
Muxing mode : DVD-Video
Duration : 26mn 43s
Bit rate mode : Constant
Bit rate : 192 Kbps
Channel(s) : 2 channels
Channel positions : Front: L R
Sampling rate : 48.0 KHz
Bit depth : 16 bits
Compression mode : Lossy
Delay relative to video : -320ms
Stream size : 36.7 MiB (4%)
Audio #2
ID : 189 (0xBD)-129 (0x81)
Format : AC-3
Format/Info : Audio Coding 3
Mode extension : CM (complete main)
Format settings, Endianness : Big
Muxing mode : DVD-Video
Duration : 26mn 43s
Bit rate mode : Constant
Bit rate : 192 Kbps
Channel(s) : 2 channels
Channel positions : Front: L R
Sampling rate : 48.0 KHz
Bit depth : 16 bits
Compression mode : Lossy
Delay relative to video : -320ms
Stream size : 36.7 MiB (4%)
Text #1
ID : 189 (0xBD)-32 (0x20)
Format : RLE
Format/Info : Run-length encoding
Muxing mode : DVD-Video
Duration : 26mn 33s
Delay relative to video : 4s 160ms
Text #2
ID : 189 (0xBD)-33 (0x21)
Format : RLE
Format/Info : Run-length encoding
Muxing mode : DVD-Video
Duration : 26mn 33s
Delay relative to video : 4s 160ms
Menu

DVD Info

Title: Zire darakhatan zeyton_(Through the Olive Trees)_1994_DVD9 R2
Size: 7.86 Gb ( 8 245 086,00 KBytes ) - DVD-9
Enabled regions: 1, 2, 3, 4, 5, 6, 7, 8
VTS_01 :
Play Length: 01:39:01
Video: PAL 16:9 (720x576) VBR, Auto Letterboxed
Audio:
Russian, AC3, 2/0 (L,R) ch, 192 kbps, Delay 0 mSec
Arabic, AC3, 2/0 (L,R) ch, 192 kbps, Delay 0 mSec
Subtitles:
Francais
VTS_02 :
Play Length: 00:04:17
Video: PAL 16:9 (720x576) VBR, Auto Letterboxed
Audio:
Francais (Dolby AC3, 2 ch)
VTS_03 :
Play Length: 00:31:44
Video: PAL 4:3 (720x576) VBR, Letterboxed
Audio:
Not specified (Dolby AC3, 2 ch)
Subtitles:
Not specified
VTS_04 :
Play Length: 00:31:25
Video: PAL 4:3 (720x576) VBR, Letterboxed
Audio:
Not specified (Dolby AC3, 2 ch)
Subtitles:
Not specified
VTS_05 :
Play Length: 00:08:21
Video: PAL 4:3 (720x576) VBR, Letterboxed
Audio:
Not specified (Dolby AC3, 2 ch)
VTS_06 :
Play Length: 00:04:17+00:05:49+00:05:55
Video: PAL 16:9 (720x576) VBR, Auto Letterboxed
Audio:
Francais (Dolby AC3, 2 ch)
* Menus Information *
VIDEO_TS Menu
Video:
PAL 16:9 (720x576) VBR
Auto Pan&Scan
English Language Unit :
Title Menu
VTS_01 Menu
Video:
PAL 16:9 (720x576) VBR
Auto Pan&Scan
Audio:
Not specified (Dolby AC3, 6 ch)
English Language Unit :
Root Menu
Subpicture Menu
VTS_02 Menu
Video:
PAL 16:9 (720x576) VBR
Auto Pan&Scan
English Language Unit :
Root Menu
VTS_03 Menu
Video:
PAL 16:9 (720x576) VBR
Auto Pan&Scan
English Language Unit :
Root Menu
VTS_04 Menu
Video:
PAL 16:9 (720x576) VBR
Auto Pan&Scan
English Language Unit :
Root Menu
VTS_05 Menu
Video:
PAL 16:9 (720x576) VBR
Auto Pan&Scan
English Language Unit :
Root Menu
VTS_06 Menu
Video:
PAL 16:9 (720x576) VBR
Auto Pan&Scan
English Language Unit :
Root Menu

П. О.

PgcDemux 1.2.0.5 - разделение компонентов диска на файлы;
MuxMan DVD authoring Professional 1.4.4 - мультиплексирование и авторинг DVD;
DVDRemake Pro 3.6.4 - реавторинг DVD;
DVD Shrink 3.2 -Сэмпл
VLC - Скриншоты-
-
- -
-
-MuxMan version 1.4.4
new project database size 400, base 23c0018.
new pointer management list size 50.
new clipboard database size 20, base 64e8c0.
Accepted audio C:\Users\LeoNeo\Downloads\The Olive Trees_1994 синхр.ac3
Accepted audio C:\Temp\_NORDER_\OLIVE\AudioFile_80.ac3
13:57:00 Begin multiplex VTS01.
Title Segment List
Segment_1 non-seamless
Encoded stream 20 is script stream 1.
Encoded stream 21 is script stream 2.
Buffering audio track 1 file C:\Users\LeoNeo\Downloads\The Olive Trees_1994 синхр.ac3.
Buffering audio track 2 file C:\Temp\_NORDER_\OLIVE\AudioFile_80.ac3.
Maximum audio duration 297072 fields.
Multiplex delay set to 25257.
Positioned C:\Temp\_NORDER_\OLIVE\VideoFile.m2v to 00:00:00:00
Starting scene Segment_1_scn1 at 00:00:00:00
Starting scene Segment_1_scn2 at 00:14:30:18
Starting scene Segment_1_scn3 at 00:24:43:17
Starting scene Segment_1_scn4 at 00:36:49:19
Starting scene Segment_1_scn5 at 00:49:12:00
Starting scene Segment_1_scn6 at 01:00:54:10
Starting scene Segment_1_scn7 at 01:14:45:07
Starting scene Segment_1_scn8 at 01:26:34:18
SeqEnd at DD451495.
Bytes remaining in buffer = 0.
Bitrate - avg: 5550736, min: 921600 (lba 0), max: 8874666 (lba 326272).
Shortest GOP has 2 fields, longest GOP has 8 fields.
Fields: 297072, VOBU: 12371, Sectors: 2012901.
14:06:10 Begin multiplex VMG.
14:06:10 End multiplex.
Summary of Virtual Memory Management
VM base 023c0000, reserved 5c000000, commited 00010000, free 5d68, disposable 0.
handle 1, size a298 (41600 data), owner 80000001, time 0, locks 1 0 0, lcnt 1.
Locked by DBinit.
handle 0, size 5d68 (23888 data), owner 0, time 0, locks 0 0 0, lcnt 0.

Скриншоты меню

Скриншоты доп. материалов



[teatrix.ru].t7326.torrent 
Торрент: Зарегистрирован [ 2015-10-11 11:22 ] · F6A1A9F9BE59945DB248456F7BC7F82F5C952B02

Скачать .torrent

Скачать

41 KB

Статус: проверено
Скачан: 0 раз
Размер: 7.86 GB
terms.php



Быстрый ответ

Имя:

      
Для отправки сообщений необходимо включить JavaScript
Показать сообщения:    

Текущее время: 02-Дек 21:08

Часовой пояс: UTC + 3


Вы можете начинать темы
Вы можете отвечать на сообщения
Вы не можете редактировать свои сообщения
Вы не можете удалять свои сообщения
Вы не можете голосовать в опросах
Вы не можете прикреплять файлы к сообщениям
Вы можете скачивать файлы