Прелестное дитя / Pretty Baby (Луи Маль / Louis Malle) [1978, США, драма, DVD9 (Custom)] [16:9 PAL R2] MVO (5 канал) + AVO (Михаил Иванов) + VO (?) + Sub Rus (Ustinoff, leburs), Eng, Fre, ... + Original Eng + DUB Ger Fre Spa Ita


Статистика раздачи [Обновить пиров]
Размер:  6.41 GB   |    Зарегистрирован:  1 год 1 месяц   |    Скачан:  0 раз

Полного источника не было: Никогда

 
   
 
 
 

[Цитировать]

Прелестное дитя / Pretty Baby
16:9 PAL R2
Слоган: «In 1917, in the red-light district of New Orleans, they called her 'Pretty Baby'» Страна: США
Студия: Paramount Pictures
Жанр: драма
Год выпуска: 1978
Продолжительность: 01:45:01
Перевод 1: Профессиональный (многоголосый закадровый) - 5 канал
Перевод 2: Авторский (одноголосый закадровый) - Михаил Иванов
Перевод 3: Одноголосый закадровый - (Автор не опознан)
Cубтитры: русские(Ustinoff, leburs), английские, французские ...
Оригинальная аудиодорожка: английский
Режиссер: Луи Маль / Louis Malle
В ролях: Брук Шилдс, Кит Кэрредин, Сьюзен Сарандон, Фрэнсис Фэй, Антонио Фаргас, Мэттью Энтон, Дайана Скаруид, Барбара Стил, Серет Скоттб, Шерил Марковиц ...
Описание: Новый Орлеан, 1917-й год. Дочь проститутки, 12-летняя Вайолет, выросшая в Новоорлеанском борделе, с раннего детства была посвящена в особенности нелегкого труда дам горизонтальной профессии. Но роль девственницы заведения, как правило, играется недолго, ведь невинность — это тот товар, который хорошо продается…
Доп. информация: Диск собран из Pretty Baby_1978_DVD9 R2 найденного в сети. (Который на постере)
Меню: Статичное, неозвученное, мультиязычное.
Меню неотредактировано, переключение звуковых дорожек и субтитров с пульта.
Фильм автоматический стартует с рус. звук. дорожкой("5 канал").
- -
-

...из книги «3500 кинорецензий»

Награды


-
-Pretty Baby_1978_DVD9 R2_Sample_.rar-
-

Точка перехода на второй слой


-
-Тип релиза: DVD9 (Custom)
Контейнер: DVD-Video
Видео: PAL 16:9 (720x576) VBR Auto Letterboxed, ~ 8716.15 kbps avg
Аудио 1: English, AC3, 2/0 (L,R) ch, 192 kbps, Delay 0 mSec
Аудио 2: Deutsch, AC3, 2/0 (L,R) ch, 192 kbps, Delay 0 mSec
Аудио 3: Espanol, AC3, 2/0 (L,R) ch, 192 kbps, Delay 0 mSec
Аудио 4: Francais, AC3, 2/0 (L,R) ch, 192 kbps, Delay 0 mSec
Аудио 5: Italiano, AC3, 2/0 (L,R) ch, 192 kbps, Delay 0 mSec
Аудио 6: Russian, AC3, 2/0 (L,R) ch, 192 kbps, Delay 0 mSec - MVO 5 канал
Аудио 7: Russian, AC3, 2/0 (L,R) ch, 192 kbps, Delay 0 mSec - AVO Михаил Иванов
Аудио 8: Russian, AC3, 2/0 (L,R) ch, 192 kbps, Delay 0 mSec - VO (Автор не опознан)
Формат субтитров: prerendered (DVD/IDX+SUB)

MediaInfo

General
Complete name : Pretty Baby_1978_DVD9 R2\VIDEO_TS\VTS_04_2.VOB
Format : MPEG-PS
File size : 1 024 MiB
Duration : 16mn 15s
Overall bit rate mode : Variable
Overall bit rate : 8 807 Kbps
Video
ID : 224 (0xE0)
Format : MPEG Video
Format version : Version 2
Format profile : Main@Main
Format settings, BVOP : Yes
Format settings, Matrix : Custom
Format settings, GOP : M=3, N=12
Duration : 16mn 14s
Bit rate mode : Variable
Bit rate : 7 096 Kbps
Maximum bit rate : 9 800 Kbps
Width : 720 pixels
Height : 576 pixels
Display aspect ratio : 16:9
Frame rate : 25.000 fps
Standard : Component
Color space : YUV
Chroma subsampling : 4:2:0
Bit depth : 8 bits
Scan type : Progressive
Scan order : Top Field First
Compression mode : Lossy
Bits/(Pixel*Frame) : 0.684
Time code of first frame : 10:16:25:12
Time code source : Group of pictures header
Stream size : 825 MiB (81%)
Color primaries : BT.601 PAL
Transfer characteristics : BT.470 System B, BT.470 System G
Matrix coefficients : BT.601
Audio #1
ID : 189 (0xBD)-128 (0x80)
Format : AC-3
Format/Info : Audio Coding 3
Mode extension : CM (complete main)
Format settings, Endianness : Big
Muxing mode : DVD-Video
Duration : 16mn 15s
Bit rate mode : Constant
Bit rate : 192 Kbps
Channel(s) : 2 channels
Channel positions : Front: L R
Sampling rate : 48.0 KHz
Bit depth : 16 bits
Compression mode : Lossy
Delay relative to video : -544ms
Stream size : 22.3 MiB (2%)
Audio #2
ID : 189 (0xBD)-129 (0x81)
Format : AC-3
Format/Info : Audio Coding 3
Mode extension : CM (complete main)
Format settings, Endianness : Big
Muxing mode : DVD-Video
Duration : 16mn 15s
Bit rate mode : Constant
Bit rate : 192 Kbps
Channel(s) : 2 channels
Channel positions : Front: L R
Sampling rate : 48.0 KHz
Bit depth : 16 bits
Compression mode : Lossy
Delay relative to video : -544ms
Stream size : 22.3 MiB (2%)
Audio #3
ID : 189 (0xBD)-130 (0x82)
Format : AC-3
Format/Info : Audio Coding 3
Mode extension : CM (complete main)
Format settings, Endianness : Big
Muxing mode : DVD-Video
Duration : 16mn 15s
Bit rate mode : Constant
Bit rate : 192 Kbps
Channel(s) : 2 channels
Channel positions : Front: L R
Sampling rate : 48.0 KHz
Bit depth : 16 bits
Compression mode : Lossy
Delay relative to video : -544ms
Stream size : 22.3 MiB (2%)
Audio #4
ID : 189 (0xBD)-131 (0x83)
Format : AC-3
Format/Info : Audio Coding 3
Mode extension : CM (complete main)
Format settings, Endianness : Big
Muxing mode : DVD-Video
Duration : 16mn 15s
Bit rate mode : Constant
Bit rate : 192 Kbps
Channel(s) : 2 channels
Channel positions : Front: L R
Sampling rate : 48.0 KHz
Bit depth : 16 bits
Compression mode : Lossy
Delay relative to video : -544ms
Stream size : 22.3 MiB (2%)
Audio #5
ID : 189 (0xBD)-132 (0x84)
Format : AC-3
Format/Info : Audio Coding 3
Mode extension : CM (complete main)
Format settings, Endianness : Big
Muxing mode : DVD-Video
Duration : 16mn 15s
Bit rate mode : Constant
Bit rate : 192 Kbps
Channel(s) : 2 channels
Channel positions : Front: L R
Sampling rate : 48.0 KHz
Bit depth : 16 bits
Compression mode : Lossy
Delay relative to video : -544ms
Stream size : 22.3 MiB (2%)
Audio #6
ID : 189 (0xBD)-133 (0x85)
Format : AC-3
Format/Info : Audio Coding 3
Mode extension : CM (complete main)
Format settings, Endianness : Big
Muxing mode : DVD-Video
Duration : 16mn 15s
Bit rate mode : Constant
Bit rate : 192 Kbps
Channel(s) : 2 channels
Channel positions : Front: L R
Sampling rate : 48.0 KHz
Bit depth : 16 bits
Compression mode : Lossy
Delay relative to video : -544ms
Stream size : 22.3 MiB (2%)
Audio #7
ID : 189 (0xBD)-134 (0x86)
Format : AC-3
Format/Info : Audio Coding 3
Mode extension : CM (complete main)
Format settings, Endianness : Big
Muxing mode : DVD-Video
Duration : 16mn 15s
Bit rate mode : Constant
Bit rate : 192 Kbps
Channel(s) : 2 channels
Channel positions : Front: L R
Sampling rate : 48.0 KHz
Bit depth : 16 bits
Compression mode : Lossy
Delay relative to video : -544ms
Stream size : 22.3 MiB (2%)
Audio #8
ID : 189 (0xBD)-135 (0x87)
Format : AC-3
Format/Info : Audio Coding 3
Mode extension : CM (complete main)
Format settings, Endianness : Big
Muxing mode : DVD-Video
Duration : 16mn 15s
Bit rate mode : Constant
Bit rate : 192 Kbps
Channel(s) : 2 channels
Channel positions : Front: L R
Sampling rate : 48.0 KHz
Bit depth : 16 bits
Compression mode : Lossy
Delay relative to video : -544ms
Stream size : 22.3 MiB (2%)
Text #1
ID : 189 (0xBD)-32 (0x20)
Format : RLE
Format/Info : Run-length encoding
Muxing mode : DVD-Video
Duration : 16mn 11s
Delay relative to video : 2s 200ms
Text #2
ID : 189 (0xBD)-33 (0x21)
Format : RLE
Format/Info : Run-length encoding
Muxing mode : DVD-Video
Duration : 16mn 11s
Delay relative to video : 2s 200ms
Text #3
ID : 189 (0xBD)-34 (0x22)
Format : RLE
Format/Info : Run-length encoding
Muxing mode : DVD-Video
Duration : 16mn 11s
Delay relative to video : 2s 200ms
Text #4
ID : 189 (0xBD)-35 (0x23)
Format : RLE
Format/Info : Run-length encoding
Muxing mode : DVD-Video
Duration : 16mn 11s
Delay relative to video : 2s 200ms
Text #5
ID : 189 (0xBD)-36 (0x24)
Format : RLE
Format/Info : Run-length encoding
Muxing mode : DVD-Video
Duration : 16mn 11s
Delay relative to video : 2s 200ms
Text #6
ID : 189 (0xBD)-37 (0x25)
Format : RLE
Format/Info : Run-length encoding
Muxing mode : DVD-Video
Duration : 16mn 11s
Delay relative to video : 2s 200ms
Text #7
ID : 189 (0xBD)-38 (0x26)
Format : RLE
Format/Info : Run-length encoding
Muxing mode : DVD-Video
Duration : 16mn 11s
Delay relative to video : 2s 200ms
Text #8
ID : 189 (0xBD)-39 (0x27)
Format : RLE
Format/Info : Run-length encoding
Muxing mode : DVD-Video
Duration : 16mn 11s
Delay relative to video : 2s 200ms
Text #9
ID : 189 (0xBD)-40 (0x28)
Format : RLE
Format/Info : Run-length encoding
Muxing mode : DVD-Video
Duration : 16mn 11s
Delay relative to video : 2s 200ms
Text #10
ID : 189 (0xBD)-41 (0x29)
Format : RLE
Format/Info : Run-length encoding
Muxing mode : DVD-Video
Duration : 16mn 11s
Delay relative to video : 2s 200ms
Text #11
ID : 189 (0xBD)-42 (0x2A)
Format : RLE
Format/Info : Run-length encoding
Muxing mode : DVD-Video
Duration : 16mn 11s
Delay relative to video : 2s 200ms
Text #12
ID : 189 (0xBD)-43 (0x2B)
Format : RLE
Format/Info : Run-length encoding
Muxing mode : DVD-Video
Duration : 16mn 13s
Delay relative to video : -200ms
Menu

DVD Info

Title: Pretty Baby_1978_DVD9 R2
Size: 6.41 Gb ( 6 724 864,00 KBytes ) - DVD-9
Enabled regions: 1, 2, 3, 4, 5, 6, 7, 8
VTS_01 :
Play Length: 00:00:00
Video: PAL 16:9 (720x576) VBR, Auto Pan&Scan
VTS_02 :
Play Length: 00:00:00
Video: PAL 4:3 (720x576) VBR
VTS_03 :
Play Length: 00:00:00+00:00:00
Video: PAL 4:3 (720x576) VBR
VTS_04 :
Play Length: 01:45:01
Video: PAL 16:9 (720x576) VBR, Auto Letterboxed
Audio:
English, AC3, 2/0 (L,R) ch, 192 kbps, Delay 0 mSec
Deutsch, AC3, 2/0 (L,R) ch, 192 kbps, Delay 0 mSec
Espanol, AC3, 2/0 (L,R) ch, 192 kbps, Delay 0 mSec
Francais, AC3, 2/0 (L,R) ch, 192 kbps, Delay 0 mSec
Italiano, AC3, 2/0 (L,R) ch, 192 kbps, Delay 0 mSec
Russian, AC3, 2/0 (L,R) ch, 192 kbps, Delay 0 mSec
Russian, AC3, 2/0 (L,R) ch, 192 kbps, Delay 0 mSec
Russian, AC3, 2/0 (L,R) ch, 192 kbps, Delay 0 mSec
Subtitles:
Dansk
Deutsch
English
Espanol
Francais
Italiano
Nederlands
Norsk
Suomi
Svenska
English
Russian
* Menus Information *
VIDEO_TS Menu
Video:
PAL 16:9 (720x576) VBR
Auto Pan&Scan
English Language Unit :
Title Menu
VTS_01 Menu
Video:
NTSC 4:3 (720x480) VBR
Auto Pan&Scan, Auto Letterboxed
English Language Unit :
Root Menu
VTS_02 Menu
Video:
PAL 16:9 (720x576) VBR
Auto Pan&Scan
Audio:
Not specified (Dolby AC3, 2 ch)
English Language Unit :
Root Menu
Angle menu
VTS_03 Menu
Video:
PAL 16:9 (720x576) VBR
Auto Letterboxed
Audio:
Not specified (Dolby AC3, 2 ch)
English Language Unit :
Root Menu
Subpicture Menu
Audio Menu
VTS_04 Menu
Video:
PAL 16:9 (720x576) VBR
Auto Pan&Scan
English Language Unit :
Root Menu
Subpicture Menu
Audio Menu
Angle menu
Chapter (PTT) Menu

П. О.

PgcDemux 1.2.0.5 - разделение компонентов диска на файлы;
BeSweetv1.5b31+BeLight 0.21 - AC3 -> Wav
Sound Forge pro 10 - Wav -> AC3
MaestroSBT-Unicode-2.6.2.1 - Создание субтитров
DVDSubEdit -- Version 1.52 - Правка (цветовых схем) субтитров
MuxMan DVD authoring Professional 1.4.4 - мультиплексирование и авторинг DVD;
DVDRemake Pro 3.6.4 - реавторинг DVD;
DVD Shrink 3.2 - Сэмпл
VLC - Скриншоты-
-
-



-
-
-BeSweet v1.5b31 by DSPguru.
--------------------------
Using azid.dll v1.9 (b922) by Midas (midas@egon.gyaloglo.hu).
Logging start : 09/22/14 , 20:53:11.
BeSweet.exe -core( -input C:\Temp\BABY\AudioFile_80.ac3 -output C:\Temp\BABY\AudioFile_80.wav -2ch -logfile C:\Temp\BABY\AudioFile_80.log ) -azid( -s mono -c normal -L -3db )
[00:00:00:000] +------- BeSweet -----
[00:00:00:000] | Input : C:\Temp\BABY\AudioFile_80.ac3
[00:00:00:000] | Output: C:\Temp\BABY\AudioFile_80.wav
[00:00:00:000] | Floating-Point Process: No
[00:00:00:000] +-------- AZID -------
[00:00:00:000] | Input Channels Mode: 2/0, Bitrate: 192kbps
[00:00:00:000] | Output Stereo mode: Dolby surround 2 compatible
[00:00:00:000] | Total Gain: 0.000dB, Compression: Normal
[00:00:00:000] | LFE levels: To LR -3.0dB, To LFE 0.0dB
[00:00:00:000] | Center mix level: BSI
[00:00:00:000] | Surround mix level: BSI
[00:00:00:000] | Dialog normalization: No
[00:00:00:000] | Rear channels filtering: No
[00:00:00:000] | Source Sample-Rate: 48.0KHz
[00:00:00:000] +---------------------
[01:45:01:504] Conversion Completed !
[01:45:01:504] Actual Avg. Bitrate : 172kbps
[00:01:14:000]
[teatrix.ru].t7331.torrent 
Торрент: Зарегистрирован [ 2015-10-11 11:22 ] · 8D502A11D74CE0474A2DE04DEFA5A0D3D9742E42

Скачать .torrent

Скачать

34 KB

Статус: проверено
Скачан: 0 раз
Размер: 6.41 GB
terms.php



Быстрый ответ

Имя:

      
Для отправки сообщений необходимо включить JavaScript
Показать сообщения:    

Текущее время: 08-Дек 10:53

Часовой пояс: UTC + 3


Вы можете начинать темы
Вы можете отвечать на сообщения
Вы не можете редактировать свои сообщения
Вы не можете удалять свои сообщения
Вы не можете голосовать в опросах
Вы не можете прикреплять файлы к сообщениям
Вы можете скачивать файлы