Воин / The Warrior (Азиф (Асиф) Кападиа / Asif Kapadia) [2001, Великобритания, Франция, Германия, Индия, драма, приключения, DVD9 (Custom)] [16:9 PAL R2] DVO + Sub Eng + Original Hin + Commentary Eng


Статистика раздачи [Обновить пиров]
Размер:  7.48 GB   |    Зарегистрирован:  1 год 1 месяц   |    Скачан:  0 раз

Полного источника не было: Никогда

 
   
 
 
 

[Цитировать]

Воин / The Warrior
16:9 PAL R2
Страна: Великобритания, Франция, Германия, Индия
Студия: FilmFour, Senator Film Produktion, British Screen Productions, Les Productions Lazennec, The Bureau, Film Services India, Equinoxe.
Жанр: драма, приключения
Год выпуска: 2001
Продолжительность: 01:22:42
Перевод: Профессиональный (двухголосый закадровый)
Cубтитры: английские(неотключаемые)
Оригинальная аудиодорожка: Хинди
Режиссер: Азиф (Асиф) Кападиа / Asif Kapadia
В ролях: Ирфан Кхан, Пуру Чиббер, Айно Аннуддин, Манодж Мишра, Нанхе Кхан, Чандер Сингх, Хемант Маахаор, Мандакини Госвами, Сунита Шарма, Шаукет Баиг ...
Описание: Когда-то он был начальником охраны у жестокого землевладельца, но благодаря мистической встрече отказался от насилия. Вложив меч в ножны, воин поклялся больше никогда никого не убивать и решил вернуться на родину. Разъяренный хозяин направляет по следам воина отряд наемных убийц…
Доп. информация: Диск собран из The Warrior_2001_DVD9 R2 найденного в сети. (Который на постере)
Бонусы: Все допы. имеют анг. субтитры.
Deleted Scenes.
Making Of Documentary.
Featurette.
The Sheep Thief (Student Film).
Trailer.
Director's Commentary.
Меню: Статичное, озвученное, на английском.
Меню неотредактировано, переключение звуковых дорожек с пульта.
Фильм автоматический стартует с рус. звук. дорожкой.
- -
-

...из книги «3500 кинорецензий»

Награды


-
-The Warrior_2001_DVD9 R2_Sample_.rar-
-

Точка перехода на второй слой


-
-Тип релиза: DVD9 (Custom)
Контейнер: DVD-Video
Видео: PAL 16:9 (720x576) VBR Auto Letterboxed, ~ 5824.52 kbps avg
Аудио 1: Hindi, AC3, 3/2 (L,C,R,SL,SR)+LFE ch, 448 kbps, Delay 0 mSec
Аудио 2: English, AC3, 2/0 (L,R) ch, 224 kbps, Delay 0 mSec - Director's Commentary
Аудио 3: Russian, AC3, 2/0 (L,R) ch, 192 kbps, Delay 0 mSec
Формат субтитров: hardsub (неотключаемые)

MediaInfo

General
Complete name : The Warrior_2001_DVD9 R2\VIDEO_TS\VTS_01_2.VOB
Format : MPEG-PS
File size : 1 024 MiB
Duration : 24mn 14s
Overall bit rate mode : Variable
Overall bit rate : 5 904 Kbps
Video
ID : 224 (0xE0)
Format : MPEG Video
Format version : Version 2
Format profile : Main@Main
Format settings, BVOP : Yes
Format settings, Matrix : Custom
Format settings, GOP : M=3, N=12
Duration : 24mn 14s
Bit rate mode : Variable
Bit rate : 4 922 Kbps
Maximum bit rate : 9 800 Kbps
Width : 720 pixels
Height : 576 pixels
Display aspect ratio : 16:9
Frame rate : 25.000 fps
Standard : PAL
Color space : YUV
Chroma subsampling : 4:2:0
Bit depth : 8 bits
Scan type : Interlaced
Scan order : Top Field First
Compression mode : Lossy
Bits/(Pixel*Frame) : 0.475
Stream size : 854 MiB (83%)
Audio #1
ID : 189 (0xBD)-128 (0x80)
Format : AC-3
Format/Info : Audio Coding 3
Mode extension : CM (complete main)
Format settings, Endianness : Big
Muxing mode : DVD-Video
Duration : 24mn 14s
Bit rate mode : Constant
Bit rate : 448 Kbps
Channel(s) : 6 channels
Channel positions : Front: L C R, Side: L R, LFE
Sampling rate : 48.0 KHz
Bit depth : 16 bits
Compression mode : Lossy
Delay relative to video : -656ms
Stream size : 77.7 MiB (8%)
Audio #2
ID : 189 (0xBD)-129 (0x81)
Format : AC-3
Format/Info : Audio Coding 3
Mode extension : CM (complete main)
Format settings, Endianness : Big
Muxing mode : DVD-Video
Duration : 24mn 14s
Bit rate mode : Constant
Bit rate : 224 Kbps
Channel(s) : 2 channels
Channel positions : Front: L R
Sampling rate : 48.0 KHz
Bit depth : 16 bits
Compression mode : Lossy
Delay relative to video : -592ms
Stream size : 38.9 MiB (4%)
Audio #3
ID : 189 (0xBD)-130 (0x82)
Format : AC-3
Format/Info : Audio Coding 3
Mode extension : CM (complete main)
Format settings, Endianness : Big
Muxing mode : DVD-Video
Duration : 24mn 14s
Bit rate mode : Constant
Bit rate : 192 Kbps
Channel(s) : 2 channels
Channel positions : Front: L R
Sampling rate : 48.0 KHz
Bit depth : 16 bits
Compression mode : Lossy
Delay relative to video : -560ms
Stream size : 33.3 MiB (3%)
Menu

DVD Info

Title: The Warrior_2001_DVD9 R2
Size: 7.48 Gb ( 7 846 018,00 KBytes ) - DVD-9
Enabled regions: 1, 2, 3, 4, 5, 6, 7, 8
VTS_01 :
Play Length: 00:00:00+01:22:42
Video: PAL 16:9 (720x576) VBR, Auto Letterboxed
Audio:
Hindi, AC3, 3/2 (L,C,R,SL,SR)+LFE ch, 448 kbps, Delay 0 mSec
English, AC3, 2/0 (L,R) ch, 224 kbps, Delay 0 mSec
Russian, AC3, 2/0 (L,R) ch, 192 kbps, Delay 0 mSec
VTS_02 :
Play Length: 01:04:15+00:44:02+00:02:14+00:23:40
Video: PAL 4:3 (720x576) VBR
Audio:
English (Dolby AC3, 2 ch)
Subtitles:
English
VTS_03 :
Play Length: 00:01:39
Video: PAL 16:9 (720x576) VBR, Auto Letterboxed
Audio:
English (Dolby AC3, 2 ch)
Subtitles:
English
VTS_04 :
Play Length: 00:00:18+00:00:00
Video: PAL 16:9 (720x576) VBR, Auto Letterboxed
Audio:
English (Dolby AC3, 2 ch)
* Menus Information *
VIDEO_TS Menu
Video:
NTSC 4:3 (720x480) VBR
Auto Pan&Scan, Auto Letterboxed
English Language Unit :
Title Menu
VTS_01 Menu
Video:
PAL 16:9 (720x576) VBR
Auto Letterboxed
Audio:
Not specified (Dolby AC3, 2 ch)
English Language Unit :
Root Menu
Subpicture Menu
VTS_02 Menu
Video:
NTSC 4:3 (720x480) VBR
Auto Pan&Scan, Auto Letterboxed
English Language Unit :
Root Menu
VTS_03 Menu
Video:
NTSC 4:3 (720x480) VBR
Auto Pan&Scan, Auto Letterboxed
English Language Unit :
Root Menu
VTS_04 Menu
Video:
NTSC 4:3 (720x480) VBR
Auto Pan&Scan, Auto Letterboxed
Language Unit :
Subpicture Menu
Angle menu
Language Unit :
Language Unit :
Subpicture Menu
Audio Menu
Angle menu
Chapter (PTT) Menu
Language Unit :
Language Unit :
Subpicture Menu
Audio Menu
Angle menu
Chapter (PTT) Menu

П. О.

PgcDemux 1.2.0.5 - разделение компонентов диска на файлы;
BeSweetv1.5b31+BeLight 0.21 - AC3, mp3 -> Wav
Sound Forge pro 10 - Wav -> AC3
MuxMan DVD authoring Professional 1.4.4 - мультиплексирование и авторинг DVD;
DVDRemake Pro 3.6.4 - реавторинг DVD;
DVD Shrink 3.2 - Сэмпл
VLC - Скриншоты-
-
-

-
-
-BeSweet v1.5b31 by DSPguru.
--------------------------
Using azid.dll v1.9 (b922) by Midas (midas@egon.gyaloglo.hu).
Logging start : 09/21/14 , 20:50:38.
BeSweet.exe -core( -input C:\Temp\WARIOR\AudioFile_80.ac3 -output C:\Temp\WARIOR\AudioFile_80.wav -6chwav -logfile C:\Temp\WARIOR\AudioFile_80.log ) -azid( -c normal )
[00:00:00:000] +------- BeSweet -----
[00:00:00:000] | Input : C:\Temp\WARIOR\AudioFile_80.ac3
[00:00:00:000] | Output: C:\Temp\WARIOR\AudioFile_80.wav
[00:00:00:000] | Floating-Point Process: No
[00:00:00:000] +-------- AZID -------
[00:00:00:000] | Input Channels Mode: 3/2, Bitrate: 448kbps
[00:00:00:000] | Total Gain: 0.000dB, Compression: Normal
[00:00:00:000] | LFE levels: To LR -INF, To LFE 0.0dB
[00:00:00:000] | Center mix level: BSI
[00:00:00:000] | Surround mix level: BSI
[00:00:00:000] | Dialog normalization: No
[00:00:00:000] | Rear channels filtering: No
[00:00:00:000] | Source Sample-Rate: 48.0KHz
[00:00:00:000] +---------------------
[01:22:42:464] Conversion Completed !
[01:22:42:464] Actual Avg. Bitrate : 865kbps
[00:01:58:000]
[teatrix.ru].t7332.torrent 
Торрент: Зарегистрирован [ 2015-10-11 11:22 ] · 34A2E9090AA94A47A10F5C9D22A4A8B1967BA629

Скачать .torrent

Скачать

39 KB

Статус: проверено
Скачан: 0 раз
Размер: 7.48 GB
terms.php



Быстрый ответ

Имя:

      
Для отправки сообщений необходимо включить JavaScript
Показать сообщения:    

Текущее время: 11-Дек 01:23

Часовой пояс: UTC + 3


Вы можете начинать темы
Вы можете отвечать на сообщения
Вы не можете редактировать свои сообщения
Вы не можете удалять свои сообщения
Вы не можете голосовать в опросах
Вы не можете прикреплять файлы к сообщениям
Вы можете скачивать файлы