Трус / Kapurush / The Coward (Сатьяджит Рей / Satyajit Ray) [1965, Индия, Драма, DVD5 (Custom)]+Sub Rus(nickk), Eng + Original Beng / Criterion Collection#668


Статистика раздачи [Обновить пиров]
Размер:  4.22 GB   |    Зарегистрирован:  1 год 1 месяц   |    Скачан:  0 раз

Полного источника не было: Никогда

 
   
 
 
 

[Цитировать]

Трус / Kapurush / The Coward / Criterion Collection#668 Диск 2
Страна:Индия
Студия:R.D.Banshal & Co.
Жанр:Драма
Год выпуска:1965
Продолжительность:01:09:43
Производитель:The Criterion Collection #668
Перевод :Субтитры
Cубтитры:Русский (nickk), Английские
Оригинальная аудиодорожка:Бенгальский
Премьера (мир):7.05.1965
Режиссер:Сатьяджит Рей / Satyajit RayСценарий:Сатьяджит Рай, Premendra MitraПродюсер:Р.Д. Бансал
Композитор:Сатьяджит РайХудожник:Банси ЧандрагуптаОператор:Суменду Рой
Монтаж:Дулал Дутта
В ролях:Сумитра Чаттерджи, Мадхаби Мухерджи, Харадхан Баннерджи, Санти Чаттерджи, Satish Haldar, Deochand Lal.Описание:Амитабха Рой, сценарист из Калькутты, путешествует по стране, собирая материал для фильма. В небольшом городке у него сломалась машина. Местный крестьянин Бимал Гупта предлагает ему остановиться у него на ночлег, и Амитабхе приходится согласиться.В доме Гупты Амитабха встречается с его женой, Каруной.К своему изумлению Амитабха обнаруживает, что это девушка, которую он когда-то любил и покинул.

Это интересно

Рай, Сатьяджит-https://ru.wikipedia.org/wiki/Рай,_Сатьяджит Трус-фильм-https://ru.wikipedia.org/wiki/Трус_(фильм)

Награды и номинации Трус

Венецианский кинофестиваль, 1965 год
Номинации (1):
Золотой лев
Доп. информация:Софт:PGCDemux (извлечение).
DVD-lab PRO 2, Subtitle Workshop (субтитры).
MuxMan (сборка). DvdReMakePro (финал).Исходник найден в сети.Русские субтитры nickkПеревод субтитров с английского - nickk с Феникса.Реавторинг Нордер.
Огромное Спасибо Всем, без чьей помощи этот релиз не состоялся бы!Бонусы:Disc 2- The Coward (Kapurush, 1965), a short feature by Ray that also addresses modern female identity and stars Mukherjee and Soumitra ChatterjeeМеню:Английский, статичное, неозвученное.Сэмпл:http://multi-up.com/992542
Тип релиза:DVD5 (Custom) - BDRip - Еще BDRip
Контейнер:DVD-Video
Видео:NTSC 4:3 (720x480) VBR, 5946 Кбит/сек, 23,976 кадра/сек
Аудио :Бенгальский:AC3, 1 ch, 48.0 KHz, 192 Кбит/сек / (Оригинал)
Формат субтитров:prerendered (DVD/IDX+SUB)

Dvd Info- Диск 2

Title: Диск 2
Size: 4.22 Gb ( 4 430 068,00 KBytes ) - DVD-5
Enabled regions: 1, 2, 3, 4, 5, 6, 7, 8
VTS_01 :
Play Length: 00:00:00
Video: NTSC 4:3 (720x480) VBR
VTS_02 :
Play Length: 01:09:43
Video: NTSC 4:3 (720x480) VBR
Audio:
Bengali, AC3, 1/0 (C) ch, 192 kbps, Delay 0 mSec
Subtitles:
Russian
English
VTS_03 :
Play Length: 00:00:20
Video: NTSC 4:3 (720x480) VBR
VTS_04 :
Play Length: 00:00:00
Video: NTSC 4:3 (720x480) VBR

MediaInfo- Диск 2

Общее
Полное имя: F:\The Big City DVD-9+DVD-5_Criterion#668\Диск 2\VIDEO_TS\VTS_02_1.VOB
Формат : MPEG-PS
Размер файла : 1024 Мбайт
Продолжительность : 17 м.
Режим общего битрейта : Переменный
Общий поток : 8368 Кбит/сек
Видео
Идентификатор : 224 (0xE0)
Формат : MPEG Video
Версия формата : Version 2
Профиль формата : Main@Main
Параметр BVOP формата : Да
Параметр матрицы формата : Выборочная
Параметр GOP формата : Variable
Продолжительность : 17 м.
Вид битрейта : Переменный
Битрейт : 8010 Кбит/сек
Максимальный битрейт : 9800 Кбит/сек
Ширина : 720 пикселей
Высота : 480 пикселей
Соотношение сторон : 4:3
Частота кадров : 23,976 кадра/сек
Стандарт вещания : NTSC
Цветовое пространство : YUV
Субдискретизация насыщенности : 4:2:0
Битовая глубина : 8 бит
Тип развёртки : Прогрессивная
Порядок развёртки : 2:3 Pulldown
Метод сжатия : С потерями
Бит/(Пиксели*Кадры) : 0.967
Временной код первого кадра : 00:59:32:00
Оригинал временного кода : Group of pictures header
Размер потока : 980 Мбайт (96%)
Аудио
Идентификатор : 189 (0xBD)-128 (0x80)
Формат : AC-3
Формат/Информация : Audio Coding 3
Расширение режима : CM (complete main)
Параметр Endianness формата : Big
Режим смешивания : DVD-Video
Продолжительность : 17 м.
Вид битрейта : Постоянный
Битрейт : 192 Кбит/сек
Каналы : 1 канал
Расположение каналов : Front: C
Частота : 48,0 КГц
Битовая глубина : 16 бит
Метод сжатия : С потерями
Размер потока : 23,5 Мбайт (2%)
Текст #1
Идентификатор : 189 (0xBD)-32 (0x20)
Формат : RLE
Формат/Информация : Run-length encoding
Режим смешивания : DVD-Video
Текст #2
Идентификатор : 189 (0xBD)-33 (0x21)
Формат : RLE
Формат/Информация : Run-length encoding
Режим смешивания : DVD-Video

Скриншоты меню-Диск 2

Скриншоты фильма-Диск 2

Полиграфия

[teatrix.ru].t7342.torrent 
Торрент: Зарегистрирован [ 2015-10-11 11:22 ] · 33A0FACED886183BAB1DA1912232DFE4EB94EC6B

Скачать .torrent

Скачать

23 KB

Статус: проверено
Скачан: 0 раз
Размер: 4.22 GB
terms.php



Быстрый ответ

Имя:

      
Для отправки сообщений необходимо включить JavaScript
Показать сообщения:    

Текущее время: 04-Дек 02:54

Часовой пояс: UTC + 3


Вы можете начинать темы
Вы можете отвечать на сообщения
Вы не можете редактировать свои сообщения
Вы не можете удалять свои сообщения
Вы не можете голосовать в опросах
Вы не можете прикреплять файлы к сообщениям
Вы можете скачивать файлы