Большой город / Mahanagar / The Big City (Сатьяджит Рей / Satyajit Ray) [1963, Индия, Драма, DVD9 (Custom)] Sub Rus(vic116), Eng + Original Beng / Criterion Collection#668


Статистика раздачи [Обновить пиров]
Размер:  7.6 GB   |    Зарегистрирован:  1 год 1 месяц   |    Скачан:  0 раз

Полного источника не было: Никогда

 
   
 
 
 

[Цитировать]

Большой город / Mahanagar / The Big City / Criterion Collection#668 Диск 1
Страна:Индия
Студия:R.D.Banshal & Co.
Жанр:Драма
Год выпуска:1963
Продолжительность:02:15:55
Производитель:The Criterion Collection #668
Перевод :Субтитры
Cубтитры:Русский (vic116), Английские
Оригинальная аудиодорожка:Бенгальский
Премьера (мир):27.09.1963
Режиссер:Сатьяджит Рей / Satyajit RayСценарий:Сатьяджит Рай, Narendranath MitraПродюсер:Р.Д. БансалОператор:Субрата МитраКомпозитор:Сатьяджит РайХудожник:Банси ЧандрагуптаМонтаж:Дулал ДуттаВ ролях: Анил Чаттерджи, Мадхаби Мухерджи, Джая Бхадури, Харен Чаттерджи, Сефалика Деви, Прасенджит Саркар, Харадхан Баннерджи, Вики Редвуд, Bibhuti Banerjee, Manisha Chakraborty
Описание:Действия фильма разворачиваются в Калькутте в 1950-х годах. Арати вынуждена устроиться на свою первую работу, так как доходов её мужа не хватает для обеспечения семьи. Это решение носит чисто финансовый оттенок и принято, несмотря на сопротивление родственников. Впоследствии Арати приобретает финансовую независимость. В конечном счёте, её муж теряет работу и она становится единственным кормильцем. Они начинают отдаляться друг от друга.
На работе Арати сближается с Эдит, которую недолюбливает босс из-за её английского происхождения. Ослеплённый предрассудками, он увольняет Эдит. Арати заступается за неё, но её тоже увольняют. Теперь ни Арати, ни её муж не имеют работы. После первоначального шока они мирятся, а Арати уверена, что в таком большом городе, по крайней мере один из них найдёт работу.

Это интересно

Рай, Сатьяджит-https://ru.wikipedia.org/wiki/Рай,_Сатьяджит Большой город-фильм-https://ru.wikipedia.org/wiki/Большой_город_(фильм)

Награды и номинации Большой город

Берлинский кинофестиваль, 1964 год
Победитель (1):
Серебряный Медведь за лучшую режиссерскую работу (Сатьяджит Рай)
Номинации (1):
Золотой Медведь

Софт:

PGCDemux (извлечение).
DVD-lab PRO 2, Subtitle Workshop (субтитры).
MuxMan (сборка). DvdReMakePro (финал).Исходник найден в сети.
В Большой город добавлены русские субтитры(vic116)из раздачи vic116 - http://teatrix.ru/viewtopic.php?t=6030Реавторинг Нордер.Огромное Спасибо Всем, без чьей помощи этот релиз не состоялся бы!Бонусы:(Без перевода):Disc 1- New, restored 2K digital film transfer
- New interview with actor Madhabi Mukherjee
- Satyajit Ray and the Modern Woman, a new interview with Ray scholar Suranjan Ganguly
- Satyajit Ray (1974), a documentary short by B. D. Garga
- New English subtitle translationМеню:Английский, анимированное, озвученное.
Сэмпл:http://multi-up.com/992541
Тип релиза:DVD9 (Custom) - HDRip (1.46 GB) - HDRip (2.17 GB)
Контейнер:DVD-Video
Видео:NTSC 4:3 (720x480) VBR, 5946 Кбит/сек, 23,976 кадра/сек
Аудио :Бенгальский:AC3, 2 ch, 48.0 KHz, 192 Кбит/сек / (Оригинал)
Формат субтитров:prerendered (DVD/IDX+SUB)

Dvd Info- Диск 1

Title: Диск 1
Size: 7.60 Gb ( 7 968 538,00 KBytes ) - DVD-9
Enabled regions: 1, 2, 3, 4, 5, 6, 7, 8
VTS_01 :
Play Length: 00:00:00
Video: NTSC 4:3 (720x480) VBR
VTS_02 :
Play Length: 02:15:55
Video: NTSC 4:3 (720x480) VBR
Audio:
Bengali, AC3, 1/0 (C) ch, 192 kbps, Delay 0 mSec
Subtitles:
Russian
English
VTS_03 :
Play Length: 00:00:20
Video: NTSC 4:3 (720x480) VBR
VTS_04 :
Play Length: 00:16:32
Video: NTSC 16:9 (720x480) VBR, Auto Letterboxed
Audio:
Bengali, AC3, 1/0 (C) ch, 192 kbps, Delay 0 mSec
Subtitles:
English
VTS_05 :
Play Length: 00:22:24
Video: NTSC 16:9 (720x480) VBR, Auto Letterboxed
Audio:
English, AC3, 1/0 (C) ch, 192 kbps, Delay 0 mSec
Subtitles:
English
English
VTS_06 :
Play Length: 00:13:35
Video: NTSC 4:3 (720x480) VBR
Audio:
English, AC3, 1/0 (C) ch, 192 kbps, Delay 0 mSec
Subtitles:
English
VTS_07 :
Play Length: 00:00:00
Video: NTSC 4:3 (720x480) VBR

MediaInfo- Диск 1

Общее
Полное имя: F:\The Big City DVD-9+DVD-5_Criterion#668\Диск 1\VIDEO_TS\VTS_02_1.VOB
Формат : MPEG-PS
Размер файла : 1024 Мбайт
Продолжительность : 22 м.
Режим общего битрейта : Переменный
Общий поток : 6262 Кбит/сек
Видео
Идентификатор : 224 (0xE0)
Формат : MPEG Video
Версия формата : Version 2
Профиль формата : Main@Main
Параметр BVOP формата : Да
Параметр матрицы формата : Выборочная
Параметр GOP формата : Variable
Продолжительность : 22 м.
Вид битрейта : Переменный
Битрейт : 5946 Кбит/сек
Максимальный битрейт : 9800 Кбит/сек
Ширина : 720 пикселей
Высота : 480 пикселей
Соотношение сторон : 4:3
Частота кадров : 23,976 кадра/сек
Стандарт вещания : NTSC
Цветовое пространство : YUV
Субдискретизация насыщенности : 4:2:0
Битовая глубина : 8 бит
Тип развёртки : Прогрессивная
Порядок развёртки : 2:3 Pulldown
Метод сжатия : С потерями
Бит/(Пиксели*Кадры) : 0.718
Временной код первого кадра : 00:59:32:00
Оригинал временного кода : Group of pictures header
Размер потока : 972 Мбайт (95%)
Аудио
Идентификатор : 189 (0xBD)-128 (0x80)
Формат : AC-3
Формат/Информация : Audio Coding 3
Расширение режима : CM (complete main)
Параметр Endianness формата : Big
Режим смешивания : DVD-Video
Продолжительность : 22 м.
Вид битрейта : Постоянный
Битрейт : 192 Кбит/сек
Каналы : 1 канал
Расположение каналов : Front: C
Частота : 48,0 КГц
Битовая глубина : 16 бит
Метод сжатия : С потерями
Размер потока : 31,4 Мбайт (3%)
Текст #1
Идентификатор : 189 (0xBD)-32 (0x20)
Формат : RLE
Формат/Информация : Run-length encoding
Режим смешивания : DVD-Video
Текст #2
Идентификатор : 189 (0xBD)-33 (0x21)
Формат : RLE
Формат/Информация : Run-length encoding
Режим смешивания : DVD-Video

Скриншоты меню-Диск 1

Скриншоты фильма-Диск 1

Скриншоты доп. материалов-Диск 1


Полиграфия

[teatrix.ru].t7343.torrent 
Торрент: Зарегистрирован [ 2015-10-11 11:22 ] · 825A03979F34FE5841D22DBA23B916C33BC4D3EE

Скачать .torrent

Скачать

41 KB

Статус: проверено
Скачан: 0 раз
Размер: 7.6 GB
terms.php



Быстрый ответ

Имя:

      
Для отправки сообщений необходимо включить JavaScript
Показать сообщения:    

Текущее время: 05-Дек 15:31

Часовой пояс: UTC + 3


Вы можете начинать темы
Вы можете отвечать на сообщения
Вы не можете редактировать свои сообщения
Вы не можете удалять свои сообщения
Вы не можете голосовать в опросах
Вы не можете прикреплять файлы к сообщениям
Вы можете скачивать файлы