Право слабейшего / Довод самого слабого / La Raison Du Plus Faible (Люка Бельво / Lucas Belvaux) [2006, Бельгия, Франция, Триллер, драма, криминал, DVD9 (custom)] DVO + Original (Fr) + Sub (Rus)


Статистика раздачи [Обновить пиров]
Размер:  7.53 GB   |    Зарегистрирован:  1 год 1 месяц   |    Скачан:  0 раз

Полного источника не было: Никогда

 
   
 
 
 

[Цитировать]

Право слабейшего / La Raison Du Plus Faible- Страна: Бельгия, Франция
Студия: Agat Films & Cie, Entre Chien et Loup, France 3 Cinéma
Жанр: Триллер, драма, криминал
Год выпуска: 2006
Продолжительность: 01:50:45-Перевод: Профессиональный (двухголосый закадровый) [Elrom]
Cубтитры: русские [Bums]
Оригинальная аудиодорожка: французский-Режиссер: Люка Бельво / Lucas Belvaux-В ролях: Эрик Каравака, Люка Бельво, Наташа Ренье, Патрик Дешамп, Клод Семаль, Эли Бельво, Жильбер Мельки-Описание: Льеж. Тихий бельгийский городок. Компания приятелей собирается каждый день в кафе, расположенном возле металлургического комбината, чьи славные деньки давно ушли в прошлое. Они общаются, играют в карты и с трудом пытаются скрыть своё отчаяние и безысходность собственного существования. Патрик никак не может найти работу, Робер и Жан-Пьер попали под сокращение, и всё что им остаётся — коротать время в баре за карточной игрой. В один прекрасный день у их столика появляется Марк, недавно вышедший из тюрьмы и пытающийся как-то организовать свою жизнь. После общения с ним Роберу приходит в голову одна очень интересная мысль…-Доп. информация:
- французскую звуковую дорожку (2.0) заменил на русскую двухголоску (кнопка в Меню - "Version francaise Dolby SRD");
- русские субтитры включаются с пульта плеера;
- за исходный DVD9 спасибо edus67
Бонусы: дополнительные материалы включают фильм о съемках, трейлер фильма и описание мест происходящих событий (на сколько я понял) - все на французском языке
Меню: есть, язык французский, анимированное, озвученное-Sample | IMDB | КиноПоиск-Тип релиза: DVD9 (Custom)
Контейнер: DVD-Video-Видео: PAL 16:9 (720x576) VBR Auto Letterboxed
Аудио 1: AC3, 2/0 ch, 192Kbps, Delay 0 mSec [Russian_DVO]
Аудио 2: AC3, 3/2+LFE ch, 448Kbps, Delay 0 mSec [Original_Fr]

Используемое ПО

1. BeLight - mp3 - wav;
2. Minnetonka Audio Software - wav - ac3;

3. PgcDemux - разборка оригинального DVD;
4. MuxMan - сборка DVD;
5. DVDReMake Pro - финальный проект.

DVDInfo

Title:
Size: 7.53 Gb ( 7 890 714 KBytes ) - DVD-9
Enabled regions: 1, 2, 3, 4, 5, 6, 7, 8
VTS_01 :
Play Length: 00:01:16
Video: PAL 16:9 (720x576) VBR, Auto Letterboxed
Audio:
Francais (Dolby AC3, 2 ch)
Subtitles:
Francais
VTS_02 :
Play Length: 01:50:45+00:00:30+00:00:02+00:00:03
Video: PAL 16:9 (720x576) VBR, Auto Letterboxed
Audio:
Russian (Dolby AC3, 2 ch)
Francais (Dolby AC3, 6 ch)
Subtitles:
Russian
VTS_03 :
Play Length: 00:49:20
Video: PAL 16:9 (720x576) VBR, Auto Letterboxed
Audio:
Francais (Dolby AC3, 2 ch)
VTS_04 :
Play Length: 00:00:59+00:00:04+00:01:43+00:04:19+00:01:38+00:01:10+00:01:32+00:01:57+00:03:05
Video: PAL 16:9 (720x576) VBR, Auto Letterboxed
Audio:
Francais (Dolby AC3, 2 ch)
Subtitles:
Francais
VTS_05 :
Play Length: 00:01:42
Video: PAL 4:3 (720x576) VBR
Audio:
Francais (Dolby AC3, 2 ch)
VTS_06 :
Play Length: 00:00:59
Video: PAL 16:9 (720x576) VBR, Auto Letterboxed
Subtitles:
Francais
VTS_07 :
Play Length: 00:00:59
Video: PAL 16:9 (720x576) VBR, Auto Letterboxed
Subtitles:
Francais
Menu Video:
PAL 16:9 (720x576) VBR
Auto Letterboxed
Menu Audio:
Not specified (Dolby AC3, 2 ch)
Menu Subtitles:
Not specified
Menu Francais Language Unit :
Root Menu

MediaInfo

General
Complete name : D:\Мои релизы\La raison du plus faible [DVD9]\VIDEO_TS\VIDEO_TS.BUP
Format : DVD Video
Format profile : Menu
File size : 18.0 KiB
Video
ID : 224 (0xE0)
Format : MPEG Video
Format version : Version 2
Bit rate mode : Variable
Width : 720 pixels
Height : 576 pixels
Display aspect ratio : 16:9
Frame rate : 25.000 fps
Standard : PAL
Compression mode : Lossy
Audio
Format : AC-3
Format/Info : Audio Coding 3
Channel(s) : 2 channels
Sampling rate : 48.0 KHz
Compression mode : Lossy
Text
Format : RLE
Format/Info : Run-length encoding
Bit depth : 2 bits
General
Complete name : D:\Мои релизы\La raison du plus faible [DVD9]\VIDEO_TS\VIDEO_TS.IFO
Format : DVD Video
Format profile : Menu
File size : 18.0 KiB
Video
ID : 224 (0xE0)
Format : MPEG Video
Format version : Version 2
Bit rate mode : Variable
Width : 720 pixels
Height : 576 pixels
Display aspect ratio : 16:9
Frame rate : 25.000 fps
Standard : PAL
Compression mode : Lossy
Audio
Format : AC-3
Format/Info : Audio Coding 3
Channel(s) : 2 channels
Sampling rate : 48.0 KHz
Compression mode : Lossy
Text
Format : RLE
Format/Info : Run-length encoding
Bit depth : 2 bits
General
Complete name : D:\Мои релизы\La raison du plus faible [DVD9]\VIDEO_TS\VIDEO_TS.VOB
Format : MPEG-PS
File size : 16.2 MiB
Overall bit rate : 0
Video
ID : 224 (0xE0)
Format : MPEG Video
Format version : Version 2
Format profile : Main@Main
Format settings, BVOP : Yes
Format settings, Matrix : Default
Duration : 4s 791ms
Bit rate mode : Constant
Width : 720 pixels
Height : 576 pixels
Display aspect ratio : 16:9
Frame rate : 25.000 fps
Standard : PAL
Color space : YUV
Chroma subsampling : 4:2:0
Bit depth : 8 bits
Compression mode : Lossy
Audio
ID : 128 (0x80)
Format : AC-3
Format/Info : Audio Coding 3
Mode extension : CM (complete main)
Bit rate mode : Constant
Bit rate : 256 Kbps
Channel(s) : 2 channels
Channel positions : Front: L R
Sampling rate : 48.0 KHz
Bit depth : 16 bits
Compression mode : Lossy
Stream size : 537 ?iB
Text #1
ID : 32 (0x20)
Format : RLE
Format/Info : Run-length encoding
Text #2
ID : 33 (0x21)
Format : RLE
Format/Info : Run-length encoding
Menu
General
Complete name : D:\Мои релизы\La raison du plus faible [DVD9]\VIDEO_TS\VTS_01_0.BUP
Format : DVD Video
Format profile : Program
File size : 14.0 KiB
Duration : 1mn 16s
Overall bit rate : 1 491 bps
Video
ID : 224 (0xE0)
Format : MPEG Video
Format version : Version 2
Duration : 1mn 16s
Bit rate mode : Variable
Width : 720 pixels
Height : 576 pixels
Display aspect ratio : 16:9
Frame rate : 25.000 fps
Standard : PAL
Compression mode : Lossy
Audio
ID : 128 (0x80)
Format : AC-3
Format/Info : Audio Coding 3
Duration : 1mn 16s
Channel(s) : 2 channels
Sampling rate : 48.0 KHz
Compression mode : Lossy
Language : French
Text
ID : 32 (0x20)
Format : RLE
Format/Info : Run-length encoding
Bit depth : 2 bits
Language : French
Menu
Duration : 1mn 16s
00:00:00.000 : Chapter 1
00:00:10.480 : Chapter 2
00:00:16.240 : Chapter 3
00:00:22.480 : Chapter 4
00:00:46.480 : Chapter 5
List (Audio) : 0
List (Subtitles 4/3) : 0
List (Subtitles Wide) : 0
List (Subtitles Letterbox) : 1
List (Subtitles Pan&Scan) : 0
General
Complete name : D:\Мои релизы\La raison du plus faible [DVD9]\VIDEO_TS\VTS_01_0.IFO
Format : DVD Video
Format profile : Program
File size : 14.0 KiB
Duration : 1mn 16s
Overall bit rate : 1 491 bps
Video
ID : 224 (0xE0)
Format : MPEG Video
Format version : Version 2
Duration : 1mn 16s
Bit rate mode : Variable
Width : 720 pixels
Height : 576 pixels
Display aspect ratio : 16:9
Frame rate : 25.000 fps
Standard : PAL
Compression mode : Lossy
Audio
ID : 128 (0x80)
Format : AC-3
Format/Info : Audio Coding 3
Duration : 1mn 16s
Channel(s) : 2 channels
Sampling rate : 48.0 KHz
Compression mode : Lossy
Language : French
Text
ID : 32 (0x20)
Format : RLE
Format/Info : Run-length encoding
Bit depth : 2 bits
Language : French
Menu
Duration : 1mn 16s
00:00:00.000 : Chapter 1
00:00:10.480 : Chapter 2
00:00:16.240 : Chapter 3
00:00:22.480 : Chapter 4
00:00:46.480 : Chapter 5
List (Audio) : 0
List (Subtitles 4/3) : 0
List (Subtitles Wide) : 0
List (Subtitles Letterbox) : 1
List (Subtitles Pan&Scan) : 0
General
Complete name : D:\Мои релизы\La raison du plus faible [DVD9]\VIDEO_TS\VTS_01_1.VOB
Format : MPEG-PS
File size : 81.6 MiB
Duration : 1mn 16s
Overall bit rate : 8 904 Kbps
Video
ID : 224 (0xE0)
Format : MPEG Video
Format version : Version 2
Format profile : Main@Main
Format settings, BVOP : Yes
Format settings, Matrix : Default
Format settings, GOP : M=3, N=12
Duration : 1mn 16s
Bit rate mode : Constant
Bit rate : 8 500 Kbps
Width : 720 pixels
Height : 576 pixels
Display aspect ratio : 16:9
Frame rate : 25.000 fps
Standard : PAL
Color space : YUV
Chroma subsampling : 4:2:0
Bit depth : 8 bits
Scan type : Interlaced
Scan order : Bottom Field First
Compression mode : Lossy
Bits/(Pixel*Frame) : 0.820
Stream size : 77.7 MiB (95%)
Audio
ID : 128 (0x80)
Format : AC-3
Format/Info : Audio Coding 3
Mode extension : CM (complete main)
Duration : 1mn 16s
Bit rate mode : Constant
Bit rate : 256 Kbps
Channel(s) : 2 channels
Channel positions : Front: L R
Sampling rate : 48.0 KHz
Bit depth : 16 bits
Compression mode : Lossy
Stream size : 2.35 MiB (3%)
Menu
General
Complete name : D:\Мои релизы\La raison du plus faible [DVD9]\VIDEO_TS\VTS_02_0.BUP
Format : DVD Video
Format profile : Program
File size : 82.0 KiB
Duration : 1h 50mn
Overall bit rate : 101 bps
Video
ID : 224 (0xE0)
Format : MPEG Video
Format version : Version 2
Duration : 1h 50mn
Bit rate mode : Variable
Width : 720 pixels
Height : 576 pixels
Display aspect ratio : 16:9
Frame rate : 25.000 fps
Standard : PAL
Compression mode : Lossy
Audio #1
ID : 128 (0x80)
Format : AC-3
Format/Info : Audio Coding 3
Duration : 1h 50mn
Channel(s) : 2 channels
Sampling rate : 48.0 KHz
Compression mode : Lossy
Language : Russian
Audio #2
ID : 129 (0x81)
Format : AC-3
Format/Info : Audio Coding 3
Duration : 1h 50mn
Channel(s) : 6 channels
Sampling rate : 48.0 KHz
Compression mode : Lossy
Language : French
Text
ID : 32 (0x20)
Format : RLE
Format/Info : Run-length encoding
Bit depth : 2 bits
Language : Russian
Menu #1
Duration : 1h 50mn
00:00:00.000 : Chapter 1
00:03:26.520 : Chapter 2
00:16:44.200 : Chapter 3
00:22:09.800 : Chapter 4
00:28:38.680 : Chapter 5
00:37:51.160 : Chapter 6
00:42:44.800 : Chapter 7
00:48:37.120 : Chapter 8
00:56:23.840 : Chapter 9
01:08:42.360 : Chapter 10
01:15:10.720 : Chapter 11
01:22:59.880 : Chapter 12
01:30:36.200 : Chapter 13
01:39:06.080 : Chapter 14
01:45:05.720 : Chapter 15
List (Audio) : 0 / 1
List (Subtitles 4/3) : 0
List (Subtitles Wide) : 0
List (Subtitles Letterbox) : 0
List (Subtitles Pan&Scan) : 0
Menu #2
Duration : 30s 880ms
00:00:00.000 : Chapter 1
List (Audio) : 0 / 1
List (Subtitles 4/3) : 0
List (Subtitles Wide) : 0
List (Subtitles Letterbox) : 1
List (Subtitles Pan&Scan) : 0
General
Complete name : D:\Мои релизы\La raison du plus faible [DVD9]\VIDEO_TS\VTS_02_0.IFO
Format : DVD Video
Format profile : Program
File size : 82.0 KiB
Duration : 1h 50mn
Overall bit rate : 101 bps
Video
ID : 224 (0xE0)
Format : MPEG Video
Format version : Version 2
Duration : 1h 50mn
Bit rate mode : Variable
Width : 720 pixels
Height : 576 pixels
Display aspect ratio : 16:9
Frame rate : 25.000 fps
Standard : PAL
Compression mode : Lossy
Audio #1
ID : 128 (0x80)
Format : AC-3
Format/Info : Audio Coding 3
Duration : 1h 50mn
Channel(s) : 2 channels
Sampling rate : 48.0 KHz
Compression mode : Lossy
Language : Russian
Audio #2
ID : 129 (0x81)
Format : AC-3
Format/Info : Audio Coding 3
Duration : 1h 50mn
Channel(s) : 6 channels
Sampling rate : 48.0 KHz
Compression mode : Lossy
Language : French
Text
ID : 32 (0x20)
Format : RLE
Format/Info : Run-length encoding
Bit depth : 2 bits
Language : Russian
Menu #1
Duration : 1h 50mn
00:00:00.000 : Chapter 1
00:03:26.520 : Chapter 2
00:16:44.200 : Chapter 3
00:22:09.800 : Chapter 4
00:28:38.680 : Chapter 5
00:37:51.160 : Chapter 6
00:42:44.800 : Chapter 7
00:48:37.120 : Chapter 8
00:56:23.840 : Chapter 9
01:08:42.360 : Chapter 10
01:15:10.720 : Chapter 11
01:22:59.880 : Chapter 12
01:30:36.200 : Chapter 13
01:39:06.080 : Chapter 14
01:45:05.720 : Chapter 15
List (Audio) : 0 / 1
List (Subtitles 4/3) : 0
List (Subtitles Wide) : 0
List (Subtitles Letterbox) : 0
List (Subtitles Pan&Scan) : 0
Menu #2
Duration : 30s 880ms
00:00:00.000 : Chapter 1
List (Audio) : 0 / 1
List (Subtitles 4/3) : 0
List (Subtitles Wide) : 0
List (Subtitles Letterbox) : 1
List (Subtitles Pan&Scan) : 0
General
Complete name : D:\Мои релизы\La raison du plus faible [DVD9]\VIDEO_TS\VTS_02_0.VOB
Format : MPEG-PS
File size : 302 KiB
Duration : 40ms
Overall bit rate : 61.8 Mbps
Video
ID : 224 (0xE0)
Format : MPEG Video
Format version : Version 2
Format profile : Main@Main
Format settings, BVOP : No
Format settings, Matrix : Default
Duration : 40ms
Bit rate mode : Constant
Bit rate : 8 000 Kbps
Width : 720 pixels
Height : 576 pixels
Display aspect ratio : 16:9
Frame rate : 25.000 fps
Standard : PAL
Color space : YUV
Chroma subsampling : 4:2:0
Bit depth : 8 bits
Scan type : Progressive
Scan order : Top Field First
Compression mode : Lossy
Bits/(Pixel*Frame) : 0.772
Stream size : 39.1 KiB (13%)
Text #1
ID : 32 (0x20)
Format : RLE
Format/Info : Run-length encoding
Text #2
ID : 33 (0x21)
Format : RLE
Format/Info : Run-length encoding
Menu
General
Complete name : D:\Мои релизы\La raison du plus faible [DVD9]\VIDEO_TS\VTS_02_1.VOB
Format : MPEG-PS
File size : 1 024 MiB
Duration : 22mn 51s
Overall bit rate : 6 263 Kbps
Writing library : encoded by TMPGEnc (ver. 2.524.63.181)
Video
ID : 224 (0xE0)
Format : MPEG Video
Format version : Version 2
Format profile : Main@Main
Format settings, BVOP : Yes
Format settings, Matrix : Default
Duration : 22mn 51s
Bit rate mode : Variable
Bit rate : 5 498 Kbps
Width : 720 pixels
Height : 576 pixels
Display aspect ratio : 2.35:1
Frame rate : 25.000 fps
Standard : PAL
Color space : YUV
Chroma subsampling : 4:2:0
Bit depth : 8 bits
Compression mode : Lossy
Bits/(Pixel*Frame) : 0.530
Stream size : 899 MiB (88%)
Writing library : TMPGEnc 2.524.63.181
Audio #1
ID : 128 (0x80)
Format : AC-3
Format/Info : Audio Coding 3
Mode extension : CM (complete main)
Duration : 22mn 51s
Bit rate mode : Constant
Bit rate : 192 Kbps
Channel(s) : 2 channels
Channel positions : Front: L R
Sampling rate : 48.0 KHz
Bit depth : 16 bits
Compression mode : Lossy
Stream size : 31.4 MiB (3%)
Audio #2
ID : 129 (0x81)
Format : AC-3
Format/Info : Audio Coding 3
Mode extension : CM (complete main)
Duration : 22mn 51s
Bit rate mode : Constant
Bit rate : 448 Kbps
Channel(s) : 6 channels
Channel positions : Front: L C R, Side: L R, LFE
Sampling rate : 48.0 KHz
Bit depth : 16 bits
Compression mode : Lossy
Stream size : 73.2 MiB (7%)
Text
ID : 32 (0x20)
Format : RLE
Format/Info : Run-length encoding
Menu
General
Complete name : D:\Мои релизы\La raison du plus faible [DVD9]\VIDEO_TS\VTS_02_2.VOB
Format : MPEG-PS
File size : 1 024 MiB
Duration : 22mn 51s
Overall bit rate : 6 264 Kbps
Video
ID : 224 (0xE0)
Format : MPEG Video
Format version : Version 2
Format profile : Main@Main
Format settings, BVOP : Yes
Format settings, Matrix : Default
Format settings, GOP : M=3, N=13
Duration : 22mn 50s
Bit rate mode : Variable
Bit rate : 5 500 Kbps
Width : 720 pixels
Height : 576 pixels
Display aspect ratio : 2.35:1
Frame rate : 25.000 fps
Standard : PAL
Color space : YUV
Chroma subsampling : 4:2:0
Bit depth : 8 bits
Scan type : Interlaced
Scan order : Top Field First
Compression mode : Lossy
Bits/(Pixel*Frame) : 0.530
Stream size : 899 MiB (88%)
Audio #1
ID : 128 (0x80)
Format : AC-3
Format/Info : Audio Coding 3
Mode extension : CM (complete main)
Duration : 22mn 51s
Bit rate mode : Constant
Bit rate : 192 Kbps
Channel(s) : 2 channels
Channel positions : Front: L R
Sampling rate : 48.0 KHz
Bit depth : 16 bits
Compression mode : Lossy
Video delay : -528ms
Stream size : 31.4 MiB (3%)
Audio #2
ID : 129 (0x81)
Format : AC-3
Format/Info : Audio Coding 3
Mode extension : CM (complete main)
Duration : 22mn 51s
Bit rate mode : Constant
Bit rate : 448 Kbps
Channel(s) : 6 channels
Channel positions : Front: L C R, Side: L R, LFE
Sampling rate : 48.0 KHz
Bit depth : 16 bits
Compression mode : Lossy
Video delay : -560ms
Stream size : 73.2 MiB (7%)
Menu
General
Complete name : D:\Мои релизы\La raison du plus faible [DVD9]\VIDEO_TS\VTS_02_3.VOB
Format : MPEG-PS
File size : 1 024 MiB
Duration : 22mn 51s
Overall bit rate : 6 263 Kbps
Video
ID : 224 (0xE0)
Format : MPEG Video
Format version : Version 2
Format profile : Main@Main
Format settings, BVOP : Yes
Format settings, Matrix : Default
Format settings, GOP : M=3, N=13
Duration : 22mn 51s
Bit rate mode : Variable
Bit rate : 5 500 Kbps
Width : 720 pixels
Height : 576 pixels
Display aspect ratio : 2.35:1
Frame rate : 25.000 fps
Standard : PAL
Color space : YUV
Chroma subsampling : 4:2:0
Bit depth : 8 bits
Scan type : Interlaced
Scan order : Top Field First
Compression mode : Lossy
Bits/(Pixel*Frame) : 0.530
Stream size : 899 MiB (88%)
Audio #1
ID : 128 (0x80)
Format : AC-3
Format/Info : Audio Coding 3
Mode extension : CM (complete main)
Duration : 22mn 51s
Bit rate mode : Constant
Bit rate : 192 Kbps
Channel(s) : 2 channels
Channel positions : Front: L R
Sampling rate : 48.0 KHz
Bit depth : 16 bits
Compression mode : Lossy
Video delay : -472ms
Stream size : 31.4 MiB (3%)
Audio #2
ID : 129 (0x81)
Format : AC-3
Format/Info : Audio Coding 3
Mode extension : CM (complete main)
Duration : 22mn 51s
Bit rate mode : Constant
Bit rate : 448 Kbps
Channel(s) : 6 channels
Channel positions : Front: L C R, Side: L R, LFE
Sampling rate : 48.0 KHz
Bit depth : 16 bits
Compression mode : Lossy
Video delay : -568ms
Stream size : 73.2 MiB (7%)
Text
ID : 32 (0x20)
Format : RLE
Format/Info : Run-length encoding
Duration : 22mn 50s
Video delay : -160ms
Menu
General
Complete name : D:\Мои релизы\La raison du plus faible [DVD9]\VIDEO_TS\VTS_02_4.VOB
Format : MPEG-PS
File size : 1 024 MiB
Duration : 22mn 52s
Overall bit rate : 6 260 Kbps
Video
ID : 224 (0xE0)
Format : MPEG Video
Format version : Version 2
Format profile : Main@Main
Format settings, BVOP : Yes
Format settings, Matrix : Default
Format settings, GOP : M=3, N=13
Duration : 22mn 51s
Bit rate mode : Variable
Bit rate : 5 500 Kbps
Width : 720 pixels
Height : 576 pixels
Display aspect ratio : 2.35:1
Frame rate : 25.000 fps
Standard : PAL
Color space : YUV
Chroma subsampling : 4:2:0
Bit depth : 8 bits
Scan type : Interlaced
Scan order : Top Field First
Compression mode : Lossy
Bits/(Pixel*Frame) : 0.530
Stream size : 899 MiB (88%)
Audio #1
ID : 128 (0x80)
Format : AC-3
Format/Info : Audio Coding 3
Mode extension : CM (complete main)
Duration : 22mn 52s
Bit rate mode : Constant
Bit rate : 192 Kbps
Channel(s) : 2 channels
Channel positions : Front: L R
Sampling rate : 48.0 KHz
Bit depth : 16 bits
Compression mode : Lossy
Video delay : -264ms
Stream size : 31.4 MiB (3%)
Audio #2
ID : 129 (0x81)
Format : AC-3
Format/Info : Audio Coding 3
Mode extension : CM (complete main)
Duration : 22mn 52s
Bit rate mode : Constant
Bit rate : 448 Kbps
Channel(s) : 6 channels
Channel positions : Front: L C R, Side: L R, LFE
Sampling rate : 48.0 KHz
Bit depth : 16 bits
Compression mode : Lossy
Video delay : -360ms
Stream size : 73.3 MiB (7%)
Text
ID : 32 (0x20)
Format : RLE
Format/Info : Run-length encoding
Video delay : 1s 440ms
Menu
General
Complete name : D:\Мои релизы\La raison du plus faible [DVD9]\VIDEO_TS\VTS_02_5.VOB
Format : MPEG-PS
File size : 881 MiB
Overall bit rate : 0
Video
ID : 224 (0xE0)
Format : MPEG Video
Format version : Version 2
Format profile : Main@Main
Format settings, BVOP : Yes
Format settings, Matrix : Default
Format settings, GOP : M=3, N=13
Bit rate mode : Variable
Nominal bit rate : 5 500 Kbps
Width : 720 pixels
Height : 576 pixels
Display aspect ratio : 2.35:1
Frame rate : 25.000 fps
Standard : PAL
Color space : YUV
Chroma subsampling : 4:2:0
Bit depth : 8 bits
Scan type : Interlaced
Scan order : Top Field First
Compression mode : Lossy
Bits/(Pixel*Frame) : 0.530
Audio #1
ID : 128 (0x80)
Format : AC-3
Format/Info : Audio Coding 3
Mode extension : CM (complete main)
Bit rate mode : Constant
Bit rate : 192 Kbps
Channel(s) : 2 channels
Channel positions : Front: L R
Sampling rate : 48.0 KHz
Bit depth : 16 bits
Compression mode : Lossy
Video delay : -432ms
Stream size : 403 ?iB
Audio #2
ID : 129 (0x81)
Format : AC-3
Format/Info : Audio Coding 3
Mode extension : CM (complete main)
Bit rate mode : Constant
Bit rate : 448 Kbps
Channel(s) : 6 channels
Channel positions : Front: L C R, Side: L R, LFE
Sampling rate : 48.0 KHz
Bit depth : 16 bits
Compression mode : Lossy
Video delay : -464ms
Stream size : 940 ?iB
Text
ID : 32 (0x20)
Format : RLE
Format/Info : Run-length encoding
Video delay : 1s 400ms
Menu
General
Complete name : D:\Мои релизы\La raison du plus faible [DVD9]\VIDEO_TS\VTS_03_0.BUP
Format : DVD Video
Format profile : Program
File size : 42.0 KiB
Duration : 49mn 20s
Overall bit rate : 116 bps
Video
ID : 224 (0xE0)
Format : MPEG Video
Format version : Version 2
Duration : 49mn 20s
Bit rate mode : Variable
Width : 720 pixels
Height : 576 pixels
Display aspect ratio : 16:9
Frame rate : 25.000 fps
Standard : PAL
Compression mode : Lossy
Audio
ID : 128 (0x80)
Format : AC-3
Format/Info : Audio Coding 3
Duration : 49mn 20s
Channel(s) : 2 channels
Sampling rate : 48.0 KHz
Compression mode : Lossy
Language : French
Menu
Duration : 49mn 20s
00:00:00.000 : Chapter 1
List (Audio) : 0
General
Complete name : D:\Мои релизы\La raison du plus faible [DVD9]\VIDEO_TS\VTS_03_0.IFO
Format : DVD Video
Format profile : Program
File size : 42.0 KiB
Duration : 49mn 20s
Overall bit rate : 116 bps
Video
ID : 224 (0xE0)
Format : MPEG Video
Format version : Version 2
Duration : 49mn 20s
Bit rate mode : Variable
Width : 720 pixels
Height : 576 pixels
Display aspect ratio : 16:9
Frame rate : 25.000 fps
Standard : PAL
Compression mode : Lossy
Audio
ID : 128 (0x80)
Format : AC-3
Format/Info : Audio Coding 3
Duration : 49mn 20s
Channel(s) : 2 channels
Sampling rate : 48.0 KHz
Compression mode : Lossy
Language : French
Menu
Duration : 49mn 20s
00:00:00.000 : Chapter 1
List (Audio) : 0
General
Complete name : D:\Мои релизы\La raison du plus faible [DVD9]\VIDEO_TS\VTS_03_1.VOB
Format : MPEG-PS
File size : 1 024 MiB
Duration : 32mn 0s
Overall bit rate : 4 474 Kbps
Video
ID : 224 (0xE0)
Format : MPEG Video
Format version : Version 2
Format profile : Main@Main
Format settings, BVOP : Yes
Format settings, Matrix : Default
Format settings, GOP : M=3, N=12
Duration : 32mn 0s
Bit rate mode : Variable
Bit rate : 4 129 Kbps
Nominal bit rate : 5 000 Kbps
Width : 720 pixels
Height : 576 pixels
Display aspect ratio : 16:9
Frame rate : 25.000 fps
Standard : PAL
Color space : YUV
Chroma subsampling : 4:2:0
Bit depth : 8 bits
Scan type : Interlaced
Scan order : Bottom Field First
Compression mode : Lossy
Bits/(Pixel*Frame) : 0.398
Stream size : 945 MiB (92%)
Audio
ID : 128 (0x80)
Format : AC-3
Format/Info : Audio Coding 3
Mode extension : CM (complete main)
Duration : 31mn 59s
Bit rate mode : Constant
Bit rate : 256 Kbps
Channel(s) : 2 channels
Channel positions : Front: L R
Sampling rate : 48.0 KHz
Bit depth : 16 bits
Compression mode : Lossy
Stream size : 58.6 MiB (6%)
Menu
General
Complete name : D:\Мои релизы\La raison du plus faible [DVD9]\VIDEO_TS\VTS_03_2.VOB
Format : MPEG-PS
File size : 533 MiB
Duration : 17mn 20s
Overall bit rate : 4 300 Kbps
Video
ID : 224 (0xE0)
Format : MPEG Video
Format version : Version 2
Format profile : Main@Main
Format settings, BVOP : Yes
Format settings, Matrix : Default
Format settings, GOP : M=3, N=12
Duration : 17mn 19s
Bit rate mode : Variable
Bit rate : 3 959 Kbps
Nominal bit rate : 5 000 Kbps
Width : 720 pixels
Height : 576 pixels
Display aspect ratio : 16:9
Frame rate : 25.000 fps
Standard : PAL
Color space : YUV
Chroma subsampling : 4:2:0
Bit depth : 8 bits
Scan type : Interlaced
Scan order : Bottom Field First
Compression mode : Lossy
Bits/(Pixel*Frame) : 0.382
Stream size : 491 MiB (92%)
Audio
ID : 128 (0x80)
Format : AC-3
Format/Info : Audio Coding 3
Mode extension : CM (complete main)
Duration : 17mn 20s
Bit rate mode : Constant
Bit rate : 256 Kbps
Channel(s) : 2 channels
Channel positions : Front: L R
Sampling rate : 48.0 KHz
Bit depth : 16 bits
Compression mode : Lossy
Video delay : -608ms
Stream size : 31.7 MiB (6%)
Menu
General
Complete name : D:\Мои релизы\La raison du plus faible [DVD9]\VIDEO_TS\VTS_04_0.BUP
Format : DVD Video
Format profile : Program
File size : 24.0 KiB
Duration : 59s 0ms
Overall bit rate : 3 332 bps
Video
ID : 224 (0xE0)
Format : MPEG Video
Format version : Version 2
Duration : 59s 0ms
Bit rate mode : Variable
Width : 720 pixels
Height : 576 pixels
Display aspect ratio : 16:9
Frame rate : 25.000 fps
Standard : PAL
Compression mode : Lossy
Audio
ID : 128 (0x80)
Format : AC-3
Format/Info : Audio Coding 3
Duration : 59s 0ms
Channel(s) : 2 channels
Sampling rate : 48.0 KHz
Compression mode : Lossy
Language : French
Text
ID : 32 (0x20)
Format : RLE
Format/Info : Run-length encoding
Bit depth : 2 bits
Language : French
Menu #1
Duration : 59s 0ms
00:00:00.000 : Chapter 1
List (Audio) : 0
List (Subtitles 4/3) : 0
List (Subtitles Wide) : 0
List (Subtitles Letterbox) : 1
List (Subtitles Pan&Scan) : 0
Menu #2
Duration : 4s 520ms
00:00:00.000 : Chapter 1
List (Audio) : 0
List (Subtitles 4/3) : 0
List (Subtitles Wide) : 0
List (Subtitles Letterbox) : 0
List (Subtitles Pan&Scan) : 0
General
Complete name : D:\Мои релизы\La raison du plus faible [DVD9]\VIDEO_TS\VTS_04_0.IFO
Format : DVD Video
Format profile : Program
File size : 24.0 KiB
Duration : 59s 0ms
Overall bit rate : 3 332 bps
Video
ID : 224 (0xE0)
Format : MPEG Video
Format version : Version 2
Duration : 59s 0ms
Bit rate mode : Variable
Width : 720 pixels
Height : 576 pixels
Display aspect ratio : 16:9
Frame rate : 25.000 fps
Standard : PAL
Compression mode : Lossy
Audio
ID : 128 (0x80)
Format : AC-3
Format/Info : Audio Coding 3
Duration : 59s 0ms
Channel(s) : 2 channels
Sampling rate : 48.0 KHz
Compression mode : Lossy
Language : French
Text
ID : 32 (0x20)
Format : RLE
Format/Info : Run-length encoding
Bit depth : 2 bits
Language : French
Menu #1
Duration : 59s 0ms
00:00:00.000 : Chapter 1
List (Audio) : 0
List (Subtitles 4/3) : 0
List (Subtitles Wide) : 0
List (Subtitles Letterbox) : 1
List (Subtitles Pan&Scan) : 0
Menu #2
Duration : 4s 520ms
00:00:00.000 : Chapter 1
List (Audio) : 0
List (Subtitles 4/3) : 0
List (Subtitles Wide) : 0
List (Subtitles Letterbox) : 0
List (Subtitles Pan&Scan) : 0
General
Complete name : D:\Мои релизы\La raison du plus faible [DVD9]\VIDEO_TS\VTS_04_1.VOB
Format : MPEG-PS
File size : 995 MiB
Duration : 3mn 5s
Overall bit rate : 45.0 Mbps
Video
ID : 224 (0xE0)
Format : MPEG Video
Format version : Version 2
Format profile : Main@Main
Format settings, BVOP : Yes
Format settings, Matrix : Default
Duration : 3mn 5s
Bit rate mode : Constant
Bit rate : 43.9 Mbps
Width : 720 pixels
Height : 576 pixels
Display aspect ratio : 16:9
Frame rate : 25.000 fps
Standard : PAL
Color space : YUV
Chroma subsampling : 4:2:0
Bit depth : 8 bits
Compression mode : Lossy
Bits/(Pixel*Frame) : 4.234
Stream size : 969 MiB (97%)
Audio
ID : 128 (0x80)
Format : AC-3
Format/Info : Audio Coding 3
Mode extension : CM (complete main)
Duration : 2s 368ms
Bit rate mode : Constant
Bit rate : 256 Kbps
Channel(s) : 2 channels
Channel positions : Front: L R
Sampling rate : 48.0 KHz
Bit depth : 16 bits
Compression mode : Lossy
Stream size : 74.0 KiB (0%)
Text #1
ID : 32 (0x20)
Format : RLE
Format/Info : Run-length encoding
Text #2
ID : 33 (0x21)
Format : RLE
Format/Info : Run-length encoding
Menu
General
Complete name : D:\Мои релизы\La raison du plus faible [DVD9]\VIDEO_TS\VTS_05_0.BUP
Format : DVD Video
Format profile : Program
File size : 14.0 KiB
Duration : 1mn 42s
Overall bit rate : 1 115 bps
Video
ID : 224 (0xE0)
Format : MPEG Video
Format version : Version 2
Duration : 1mn 42s
Bit rate mode : Variable
Width : 720 pixels
Height : 576 pixels
Display aspect ratio : 4:3
Frame rate : 25.000 fps
Standard : PAL
Compression mode : Lossy
Audio
ID : 128 (0x80)
Format : AC-3
Format/Info : Audio Coding 3
Duration : 1mn 42s
Channel(s) : 2 channels
Sampling rate : 48.0 KHz
Compression mode : Lossy
Language : French
Menu
Duration : 1mn 42s
00:00:00.000 : Chapter 1
List (Audio) : 0
General
Complete name : D:\Мои релизы\La raison du plus faible [DVD9]\VIDEO_TS\VTS_05_0.IFO
Format : DVD Video
Format profile : Program
File size : 14.0 KiB
Duration : 1mn 42s
Overall bit rate : 1 115 bps
Video
ID : 224 (0xE0)
Format : MPEG Video
Format version : Version 2
Duration : 1mn 42s
Bit rate mode : Variable
Width : 720 pixels
Height : 576 pixels
Display aspect ratio : 4:3
Frame rate : 25.000 fps
Standard : PAL
Compression mode : Lossy
Audio
ID : 128 (0x80)
Format : AC-3
Format/Info : Audio Coding 3
Duration : 1mn 42s
Channel(s) : 2 channels
Sampling rate : 48.0 KHz
Compression mode : Lossy
Language : French
Menu
Duration : 1mn 42s
00:00:00.000 : Chapter 1
List (Audio) : 0
General
Complete name : D:\Мои релизы\La raison du plus faible [DVD9]\VIDEO_TS\VTS_05_1.VOB
Format : MPEG-PS
File size : 78.2 MiB
Duration : 1mn 42s
Overall bit rate : 6 378 Kbps
Video
ID : 224 (0xE0)
Format : MPEG Video
Format version : Version 2
Format profile : Main@Main
Format settings, BVOP : Yes
Format settings, Matrix : Default
Format settings, GOP : M=3, N=12
Duration : 1mn 42s
Bit rate mode : Constant
Bit rate : 6 000 Kbps
Width : 720 pixels
Height : 576 pixels
Display aspect ratio : 4:3
Frame rate : 25.000 fps
Standard : PAL
Color space : YUV
Chroma subsampling : 4:2:0
Bit depth : 8 bits
Scan type : Interlaced
Scan order : Bottom Field First
Compression mode : Lossy
Bits/(Pixel*Frame) : 0.579
Stream size : 73.5 MiB (94%)
Audio
ID : 128 (0x80)
Format : AC-3
Format/Info : Audio Coding 3
Mode extension : CM (complete main)
Duration : 1mn 42s
Bit rate mode : Constant
Bit rate : 256 Kbps
Channel(s) : 2 channels
Channel positions : Front: L R
Sampling rate : 48.0 KHz
Bit depth : 16 bits
Compression mode : Lossy
Stream size : 3.14 MiB (4%)
Menu
General
Complete name : D:\Мои релизы\La raison du plus faible [DVD9]\VIDEO_TS\VTS_06_0.BUP
Format : DVD Video
Format profile : Program
File size : 14.0 KiB
Duration : 59s 0ms
Overall bit rate : 1 943 bps
Video
ID : 224 (0xE0)
Format : MPEG Video
Format version : Version 2
Duration : 59s 0ms
Bit rate mode : Variable
Width : 720 pixels
Height : 576 pixels
Display aspect ratio : 16:9
Frame rate : 25.000 fps
Standard : PAL
Compression mode : Lossy
Text
ID : 32 (0x20)
Format : RLE
Format/Info : Run-length encoding
Bit depth : 2 bits
Language : French
Menu
Duration : 59s 0ms
00:00:00.000 : Chapter 1
List (Subtitles 4/3) : 0
List (Subtitles Wide) : 0
List (Subtitles Letterbox) : 1
List (Subtitles Pan&Scan) : 0
General
Complete name : D:\Мои релизы\La raison du plus faible [DVD9]\VIDEO_TS\VTS_06_0.IFO
Format : DVD Video
Format profile : Program
File size : 14.0 KiB
Duration : 59s 0ms
Overall bit rate : 1 943 bps
Video
ID : 224 (0xE0)
Format : MPEG Video
Format version : Version 2
Duration : 59s 0ms
Bit rate mode : Variable
Width : 720 pixels
Height : 576 pixels
Display aspect ratio : 16:9
Frame rate : 25.000 fps
Standard : PAL
Compression mode : Lossy
Text
ID : 32 (0x20)
Format : RLE
Format/Info : Run-length encoding
Bit depth : 2 bits
Language : French
Menu
Duration : 59s 0ms
00:00:00.000 : Chapter 1
List (Subtitles 4/3) : 0
List (Subtitles Wide) : 0
List (Subtitles Letterbox) : 1
List (Subtitles Pan&Scan) : 0
General
Complete name : D:\Мои релизы\La raison du plus faible [DVD9]\VIDEO_TS\VTS_06_1.VOB
Format : MPEG-PS
File size : 318 KiB
Duration : 40ms
Overall bit rate : 65.1 Mbps
Video
ID : 224 (0xE0)
Format : MPEG Video
Format version : Version 2
Format profile : Main@Main
Format settings, BVOP : No
Format settings, Matrix : Default
Duration : 40ms
Bit rate mode : Constant
Bit rate : 8 000 Kbps
Width : 720 pixels
Height : 576 pixels
Display aspect ratio : 16:9
Frame rate : 25.000 fps
Standard : PAL
Color space : YUV
Chroma subsampling : 4:2:0
Bit depth : 8 bits
Scan type : Progressive
Scan order : Top Field First
Compression mode : Lossy
Bits/(Pixel*Frame) : 0.772
Stream size : 39.1 KiB (12%)
Text #1
ID : 32 (0x20)
Format : RLE
Format/Info : Run-length encoding
Text #2
ID : 33 (0x21)
Format : RLE
Format/Info : Run-length encoding
Menu
General
Complete name : D:\Мои релизы\La raison du plus faible [DVD9]\VIDEO_TS\VTS_07_0.BUP
Format : DVD Video
Format profile : Program
File size : 14.0 KiB
Duration : 59s 0ms
Overall bit rate : 1 943 bps
Video
ID : 224 (0xE0)
Format : MPEG Video
Format version : Version 2
Duration : 59s 0ms
Bit rate mode : Variable
Width : 720 pixels
Height : 576 pixels
Display aspect ratio : 16:9
Frame rate : 25.000 fps
Standard : PAL
Compression mode : Lossy
Text
ID : 32 (0x20)
Format : RLE
Format/Info : Run-length encoding
Bit depth : 2 bits
Language : French
Menu
Duration : 59s 0ms
00:00:00.000 : Chapter 1
List (Subtitles 4/3) : 0
List (Subtitles Wide) : 0
List (Subtitles Letterbox) : 1
List (Subtitles Pan&Scan) : 0
General
Complete name : D:\Мои релизы\La raison du plus faible [DVD9]\VIDEO_TS\VTS_07_0.IFO
Format : DVD Video
Format profile : Program
File size : 14.0 KiB
Duration : 59s 0ms
Overall bit rate : 1 943 bps
Video
ID : 224 (0xE0)
Format : MPEG Video
Format version : Version 2
Duration : 59s 0ms
Bit rate mode : Variable
Width : 720 pixels
Height : 576 pixels
Display aspect ratio : 16:9
Frame rate : 25.000 fps
Standard : PAL
Compression mode : Lossy
Text
ID : 32 (0x20)
Format : RLE
Format/Info : Run-length encoding
Bit depth : 2 bits
Language : French
Menu
Duration : 59s 0ms
00:00:00.000 : Chapter 1
List (Subtitles 4/3) : 0
List (Subtitles Wide) : 0
List (Subtitles Letterbox) : 1
List (Subtitles Pan&Scan) : 0
General
Complete name : D:\Мои релизы\La raison du plus faible [DVD9]\VIDEO_TS\VTS_07_1.VOB
Format : MPEG-PS
File size : 336 KiB
Duration : 40ms
Overall bit rate : 68.8 Mbps
Video
ID : 224 (0xE0)
Format : MPEG Video
Format version : Version 2
Format profile : Main@Main
Format settings, BVOP : No
Format settings, Matrix : Default
Duration : 40ms
Bit rate mode : Constant
Bit rate : 8 000 Kbps
Width : 720 pixels
Height : 576 pixels
Display aspect ratio : 16:9
Frame rate : 25.000 fps
Standard : PAL
Color space : YUV
Chroma subsampling : 4:2:0
Bit depth : 8 bits
Scan type : Progressive
Scan order : Top Field First
Compression mode : Lossy
Bits/(Pixel*Frame) : 0.772
Stream size : 39.1 KiB (12%)
Text #1
ID : 32 (0x20)
Format : RLE
Format/Info : Run-length encoding
Text #2
ID : 33 (0x21)
Format : RLE
Format/Info : Run-length encoding
Menu

Скриншоты меню

Скриншоты

Скриншоты доп. материалов

[teatrix.ru].t7346.torrent 
Торрент: Зарегистрирован [ 2015-10-11 11:22 ] · 5503DC7FC19A3676E7B5FEB60124D1F3625CF70D

Скачать .torrent

Скачать

40 KB

Статус: проверено
Скачан: 0 раз
Размер: 7.53 GB
terms.php



Быстрый ответ

Имя:

      
Для отправки сообщений необходимо включить JavaScript
Показать сообщения:    

Текущее время: 04-Дек 19:19

Часовой пояс: UTC + 3


Вы можете начинать темы
Вы можете отвечать на сообщения
Вы не можете редактировать свои сообщения
Вы не можете удалять свои сообщения
Вы не можете голосовать в опросах
Вы не можете прикреплять файлы к сообщениям
Вы можете скачивать файлы