Грабитель / Der Räuber / Der Rauber / The Robber (Беньямин Хайзенберг / Benjamin Heisenberg) [2010, Германия, Австрия, криминал, биография, DVD9 (Custom)] [16:9 NTSC R1] DVO (Культура) + DVO (студия Elrom) + VO (Rider) + Sub Eng + Original Ger


Статистика раздачи [Обновить пиров]
Размер:  5.87 GB   |    Зарегистрирован:  1 год 1 месяц   |    Скачан:  0 раз

Полного источника не было: Никогда

 
   
 
 
 

[Цитировать]

Грабитель / Der Räuber / Der Rauber / The Robber
16:9 NTSC R1
Страна: Германия, Австрия
Студия: Nikolaus Geyrhalter Filmproduktion, Peter Heilrath Filmproduktion, ZDF/Arte, Zweites Deutsches Fernsehen (ZDF), Österreichischer Rundfunk (ORF)
Жанр: драма, криминал, биография, спорт
Год выпуска: 2010
Продолжительность: 01:41:18
Перевод 1: Профессиональный (двухголосый закадровый) - "Культура"
Перевод 2: Профессиональный (двухголосый закадровый) - студия "Elrom"
Перевод 3: Одноголосый закадровый - Александр Райдер (Rider)
Cубтитры: английские
Оригинальная аудиодорожка: немецкий
Режиссер: Беньямин Хайзенберг / Benjamin Heisenberg
В ролях: Андреас Луст, Франциска Уайсс, Флориан Вотруба, Йохан Беднар, Маркус Шляйнцер, Петер Вильнай, Макс Эдельбахер, Кристиан Альтофф, Маркус Бауэр, Кристиан Бухмайр ...
Описание: Фильм рассказывает реальную историю Йоханесса Реттенбергера, спортсмена-марафонца, чьим хобби был банковский грабеж.
Доп. информация: Диск собран из Der Rauber_(The Robber)_2010_DVD9 R1 найденного в сети. (Который на постере)
Бонусы:
Trailers
Stills Gallery
Меню: Анимированное, озвученное, на английском.Меню неотредактировано, переключение звуковых дорожек с пульта.
Фильм автоматический стартует с рус. звук. дорожкой("Культура").
- -
-

Награды

Der Rauber_(The Robber)_2010_DVD9 R1_Sample_.rar-
-

Точка перехода на второй слой


-
-Тип релиза: DVD9 (Custom)
Контейнер: DVD-Video
Видео: NTSC 16:9 (720x480) VBR Auto Letterboxed, ~ 7648.60 kbps avg
Аудио 1: Russian, AC3, 2/0 (L,R) ch, 192 kbps, Delay 0 mSec - DVO "Культура"
Аудио 2: Russian, AC3, 2/0 (L,R) ch, 192 kbps, Delay 0 mSec - DVO студия "Elrom"
Аудио 3: Russian, AC3, 1/0 (C) ch, 96 kbps, Delay 0 mSec - VO Александр Райдер (Rider) {Из за огр. по битрейту пришлось сделать в 1ch 96кб/сек}
Аудио 4: Deutsch, AC3, 3/2 (L,C,R,SL,SR)+LFE ch, 448 kbps, Delay 0 mSec
Формат субтитров: prerendered (DVD/IDX+SUB)

MediaInfo

General
Complete name : Der Rauber_(The Robber)_2010_DVD9 R1\VIDEO_TS\VTS_01_2.VOB
Format : MPEG-PS
File size : 1 024 MiB
Duration : 19mn 28s
Overall bit rate mode : Variable
Overall bit rate : 7 352 Kbps
Video
ID : 224 (0xE0)
Format : MPEG Video
Format version : Version 2
Format profile : Main@Main
Format settings, BVOP : Yes
Format settings, Matrix : Custom
Format settings, GOP : Variable
Duration : 19mn 28s
Bit rate mode : Variable
Bit rate : 6 277 Kbps
Maximum bit rate : 9 800 Kbps
Width : 720 pixels
Height : 480 pixels
Display aspect ratio : 16:9
Frame rate : 23.976 fps
Standard : NTSC
Color space : YUV
Chroma subsampling : 4:2:0
Bit depth : 8 bits
Scan type : Progressive
Scan order : 2:3 Pulldown
Compression mode : Lossy
Bits/(Pixel*Frame) : 0.758
Time code of first frame : 10:20:01:00
Time code source : Group of pictures header
Stream size : 874 MiB (85%)
Audio #1
ID : 189 (0xBD)-128 (0x80)
Format : AC-3
Format/Info : Audio Coding 3
Mode extension : CM (complete main)
Format settings, Endianness : Big
Muxing mode : DVD-Video
Duration : 19mn 28s
Bit rate mode : Constant
Bit rate : 192 Kbps
Channel(s) : 2 channels
Channel positions : Front: L R
Sampling rate : 48.0 KHz
Bit depth : 16 bits
Compression mode : Lossy
Delay relative to video : -558ms
Stream size : 26.7 MiB (3%)
Audio #2
ID : 189 (0xBD)-129 (0x81)
Format : AC-3
Format/Info : Audio Coding 3
Mode extension : CM (complete main)
Format settings, Endianness : Big
Muxing mode : DVD-Video
Duration : 19mn 28s
Bit rate mode : Constant
Bit rate : 192 Kbps
Channel(s) : 2 channels
Channel positions : Front: L R
Sampling rate : 48.0 KHz
Bit depth : 16 bits
Compression mode : Lossy
Delay relative to video : -558ms
Stream size : 26.7 MiB (3%)
Audio #3
ID : 189 (0xBD)-130 (0x82)
Format : AC-3
Format/Info : Audio Coding 3
Mode extension : CM (complete main)
Format settings, Endianness : Big
Muxing mode : DVD-Video
Duration : 19mn 28s
Bit rate mode : Constant
Bit rate : 96.0 Kbps
Channel(s) : 1 channel
Channel positions : Front: C
Sampling rate : 48.0 KHz
Bit depth : 16 bits
Compression mode : Lossy
Delay relative to video : -398ms
Stream size : 13.4 MiB (1%)
Audio #4
ID : 189 (0xBD)-131 (0x83)
Format : AC-3
Format/Info : Audio Coding 3
Mode extension : CM (complete main)
Format settings, Endianness : Big
Muxing mode : DVD-Video
Duration : 19mn 28s
Bit rate mode : Constant
Bit rate : 448 Kbps
Channel(s) : 6 channels
Channel positions : Front: L C R, Side: L R, LFE
Sampling rate : 48.0 KHz
Bit depth : 16 bits
Compression mode : Lossy
Delay relative to video : -622ms
Stream size : 62.4 MiB (6%)
Text
ID : 189 (0xBD)-32 (0x20)
Format : RLE
Format/Info : Run-length encoding
Muxing mode : DVD-Video
Delay relative to video : 1s 134ms
Menu

DVD Info

Title: Der Rauber_(The Robber)_2010_DVD9 R1
Size: 5.87 Gb ( 6 152 118,00 KBytes ) - DVD-9
Enabled regions: 1, 2, 3, 4, 5, 6, 7, 8
VTS_01 :
Play Length: 01:41:18
Video: NTSC 16:9 (720x480) VBR, Auto Letterboxed
Audio:
Russian, AC3, 2/0 (L,R) ch, 192 kbps, Delay 0 mSec
Russian, AC3, 2/0 (L,R) ch, 192 kbps, Delay 0 mSec
Russian, AC3, 1/0 (C) ch, 96 kbps, Delay 0 mSec
Deutsch, AC3, 3/2 (L,C,R,SL,SR)+LFE ch, 448 kbps, Delay 0 mSec
Subtitles:
English
VTS_02 :
Play Length: 00:01:50+00:01:43+00:01:58+00:02:04+00:01:48
Video: NTSC 16:9 (720x480) VBR, Auto Letterboxed
Audio:
English (Dolby AC3, 2 ch)
* Menus Information *
VIDEO_TS Menu
Video:
NTSC 16:9 (720x480) VBR
Auto Pan&Scan
Audio:
Not specified (Dolby AC3, 2 ch)
English Language Unit :
Title Menu
VTS_01 Menu
Video:
NTSC 16:9 (720x480) VBR
Auto Pan&Scan
Audio:
Not specified (Dolby AC3, 2 ch)
English Language Unit :
Root Menu
VTS_02 Menu
Video:
NTSC 16:9 (720x480) VBR
Auto Letterboxed
English Language Unit :
Root Menu

П. О.

PgcDemux 1.2.0.5 - разделение компонентов диска на файлы;
BeSweetv1.5b31+BeLight 0.21 - AC3, mp3 -> Wav
Sound Forge pro 10 - Wav -> AC3
Sonic Foundry Soft Encode 1.0.19 PORTABLE - Wav -> AC3 (1ch)
MuxMan DVD authoring Professional 1.4.4 - мультиплексирование и авторинг DVD;
DVDRemake Pro 3.6.4 - реавторинг DVD;
DVD Shrink 3.2 - Сэмпл
VLC - Скриншоты-
-
-



-
-
-BeSweet v1.5b31 by DSPguru.
--------------------------
Using azid.dll v1.9 (b922) by Midas (midas@egon.gyaloglo.hu).
Logging start : 08/15/14 , 02:46:33.
BeSweet.exe -core( -input C:\Temp\ROBBER\AudioFile_80.ac3 -output C:\Temp\ROBBER\AudioFile_80.wav -2ch -logfile C:\Temp\ROBBER\AudioFile_80.log ) -azid( -s mono -c normal -L -3db )
[00:00:00:000] +------- BeSweet -----
[00:00:00:000] | Input : C:\Temp\ROBBER\AudioFile_80.ac3
[00:00:00:000] | Output: C:\Temp\ROBBER\AudioFile_80.wav
[00:00:00:000] | Floating-Point Process: No
[00:00:00:000] +-------- AZID -------
[00:00:00:000] | Input Channels Mode: 3/2, Bitrate: 448kbps
[00:00:00:000] | Output Stereo mode: Dolby surround 2 compatible
[00:00:00:000] | Total Gain: 0.000dB, Compression: Normal
[00:00:00:000] | LFE levels: To LR -3.0dB, To LFE 0.0dB
[00:00:00:000] | Center mix level: BSI
[00:00:00:000] | Surround mix level: BSI
[00:00:00:000] | Dialog normalization: No
[00:00:00:000] | Rear channels filtering: No
[00:00:00:000] | Source Sample-Rate: 48.0KHz
[00:00:00:000] +---------------------
[01:41:22:048] Conversion Completed !
[01:41:22:048] Actual Avg. Bitrate : 123kbps
[00:02:09:000]
[teatrix.ru].t7361.torrent 
Торрент: Зарегистрирован [ 2015-10-11 11:22 ] · 37F5B8364FA57FDF17DB30F533C93D58B9DF9625

Скачать .torrent

Скачать

31 KB

Статус: проверено
Скачан: 0 раз
Размер: 5.87 GB
terms.php



Быстрый ответ

Имя:

      
Для отправки сообщений необходимо включить JavaScript
Показать сообщения:    

Текущее время: 03-Дек 03:23

Часовой пояс: UTC + 3


Вы можете начинать темы
Вы можете отвечать на сообщения
Вы не можете редактировать свои сообщения
Вы не можете удалять свои сообщения
Вы не можете голосовать в опросах
Вы не можете прикреплять файлы к сообщениям
Вы можете скачивать файлы