Мираж / Жажда / Hyazgar / Desert Dream (Лу Чжан / Lu Zhang) [2007, Корея Южная, Франция, драма, DVD5 (Custom)] [16:9 PAL R2] Sub Rus (?) + Sub Spa + Original Kor


Статистика раздачи [Обновить пиров]
Размер:  4.34 GB   |    Зарегистрирован:  1 год 1 месяц   |    Скачан:  0 раз

Полного источника не было: Никогда

 
   
 
 
 

[Цитировать]

Мираж / Жажда / Hyazgar / Desert Dream
16:9 PAL R2
Страна: Корея Южная, Франция
Студия: G21M, Arizona Films, Centre National de la Cinématographie (CNC), Korean Film Council
Жанр: драма
Год выпуска: 2007
Продолжительность: 02:05:34
Перевод: Субтитры - Автор неизвестен
Cубтитры: испанские, русские
Оригинальная аудиодорожка: Корейский
Режиссер: Лу Чжан / Lu Zhang
В ролях: Bakchul, Bat-Ulzii, Osor Bat-Ulzii, Bayasgalan, Enkhtuul, Munkhjiin, Myagmarnaran, Nomin, Шин Дон Хо, Йунь Су
Описание: Маленькая деревня в пустынной местности на границе между Монголией и Китаем. Люди покинули город, устав бороться с пустыней, неизбежно вмешивающейся в их жизнь. А те, кто остались, во главе со своим лидером Хунгаем, продолжают засаживать местность молодыми деревьями. Даже жена Хунгая вынуждена уехать из-за болезни дочери. В то время, как он пьёт, пытаясь убежать от безысходности и страданий, на его пороге появляется беженка из Кореи Чой Сун Хи со своим сыном Чан Хо. Теперь их осталось трое…
Доп. информация: Диск собран из The Mayor of Hell_1933_DVD9 R1 найденного в сети. (Который на постере)
Исходник достался в таком виде, без допов.
Меню: Анимированное, озвученное, на испанском.Меню неотредактировано, переключение субтитров с пульта.
Фильм автоматический стартует с кор. звук. дорожкой и рус. субтитрами.
--Спасибо за рус. субтитры Tengree
-- --Hyazgar_(Desert Dream)_2007_DVD5 R2_Sample_.rar-
-

Награды


-
-Тип релиза: DVD5 (Custom)
Контейнер: DVD-Video
Видео: PAL 16:9 (720x576) VBR Auto Letterboxed, ~ 4879.83 kbps avg
Аудио: Korean, AC3, 2/0 (L,R) ch, 192 kbps, Delay 0 mSec
Формат субтитров: prerendered (DVD/IDX+SUB)

MediaInfo

General
Complete name : Hyazgar_(Desert Dream)_2007_DVD5 R2\VIDEO_TS\VTS_01_3.VOB
Format : MPEG-PS
File size : 1 024 MiB
Duration : 29mn 38s
Overall bit rate mode : Variable
Overall bit rate : 4 830 Kbps
Video
ID : 224 (0xE0)
Format : MPEG Video
Format version : Version 2
Format profile : Main@Main
Format settings, BVOP : Yes
Format settings, Matrix : Custom
Format settings, GOP : M=3, N=15
Duration : 29mn 37s
Bit rate mode : Variable
Bit rate : 4 542 Kbps
Maximum bit rate : 7 661 Kbps
Width : 720 pixels
Height : 576 pixels
Display aspect ratio : 16:9
Frame rate : 25.000 fps
Standard : PAL
Color space : YUV
Chroma subsampling : 4:2:0
Bit depth : 8 bits
Scan type : Interlaced
Scan order : Top Field First
Compression mode : Lossy
Bits/(Pixel*Frame) : 0.438
Time code of first frame : 00:57:48:00
Time code source : Group of pictures header
Stream size : 963 MiB (94%)
Audio
ID : 189 (0xBD)-128 (0x80)
Format : AC-3
Format/Info : Audio Coding 3
Mode extension : CM (complete main)
Format settings, Endianness : Big
Muxing mode : DVD-Video
Duration : 29mn 38s
Bit rate mode : Constant
Bit rate : 192 Kbps
Channel(s) : 2 channels
Channel positions : Front: L R
Sampling rate : 48.0 KHz
Bit depth : 16 bits
Compression mode : Lossy
Delay relative to video : -720ms
Stream size : 40.7 MiB (4%)
Text #1
ID : 189 (0xBD)-32 (0x20)
Format : RLE
Format/Info : Run-length encoding
Muxing mode : DVD-Video
Duration : 29mn 35s
Text #2
ID : 189 (0xBD)-33 (0x21)
Format : RLE
Format/Info : Run-length encoding
Muxing mode : DVD-Video
Duration : 29mn 36s
Menu

DVD Info

Title: Hyazgar_(Desert Dream)_2007_DVD5 R2
Size: 4.34 Gb ( 4 548 392,00 KBytes ) - DVD-5
Enabled regions: 1, 2, 3, 4, 5, 6, 7, 8
VTS_01 :
Play Length: 02:05:34
Video: PAL 16:9 (720x576) VBR, Auto Letterboxed
Audio:
Korean, AC3, 2/0 (L,R) ch, 192 kbps, Delay 0 mSec
Subtitles:
Espanol
Russian
VTS_02 :
Play Length: 00:00:00
Video: PAL 16:9 (720x576) VBR, Auto Letterboxed
VTS_03 :
Play Length: 00:00:15+00:00:17
Video: PAL 16:9 (720x576) VBR, Auto Letterboxed
Audio:
Espanol (Dolby AC3, 6 ch)
* Menus Information *
VIDEO_TS Menu
Video:
PAL 16:9 (720x576) VBR
Auto Letterboxed
Audio:
Not specified (Dolby AC3, 2 ch)
Espanol Language Unit :
Title Menu
VTS_01 Menu
Video:
PAL 16:9 (720x576) VBR
Auto Letterboxed
Audio:
Not specified (Dolby AC3, 2 ch)
Espanol Language Unit :
Root Menu
Chapter (PTT) Menu
VTS_02 Menu
Video:
PAL 16:9 (720x576) VBR
Auto Letterboxed
Espanol Language Unit :
Root Menu
VTS_03 Menu
Video:
PAL 16:9 (720x576) VBR
Auto Letterboxed
Espanol Language Unit :
Root Menu

П. О.

PgcDemux 1.2.0.5 - разделение компонентов диска на файлы;
MaestroSBT-Unicode-2.6.2.1 - Создание субтитров
DVDSubEdit -- Version 1.52 - Правка (цветовых схем) субтитров
MuxMan DVD authoring Professional 1.4.4 - мультиплексирование и авторинг DVD;
DVDRemake Pro 3.6.4 - реавторинг DVD;
DVD Shrink 3.2 - Сэмпл
VLC - Скриншоты-
-
- -
-
-MuxMan version 1.4.4
new project database size 400, base 27d0018.
new pointer management list size 50.
new clipboard database size 20, base 718d60.
Accepted audio C:\Temp\HAZGAR\AudioFile_80.ac3
expanded database to 602 entries.
expanded database to 803 entries.
02:14:43 Begin multiplex VTS01.
Title Segment List
Segment_1 non-seamless
Encoded stream 20 is script stream 1.
Encoded stream 21 is script stream 2.
Buffering audio track 1 file C:\Temp\HAZGAR\AudioFile_80.ac3.
Maximum audio duration 376224 fields.
Multiplex delay set to 25257.
Positioned C:\Temp\HAZGAR\VideoFile.m2v to 00:00:00:00
Starting scene Segment_1_scn1 at 00:00:00:00
new graphics buffer size 414720.
Starting scene Segment_1_scn2 at 00:15:48:24
Starting scene Segment_1_scn3 at 00:31:26:10
Starting scene Segment_1_scn4 at 00:47:29:19
Starting scene Segment_1_scn5 at 01:03:39:21
Starting scene Segment_1_scn6 at 01:13:17:12
Starting scene Segment_1_scn7 at 01:17:58:19
Starting scene Segment_1_scn8 at 01:34:40:13
Starting scene Segment_1_scn9 at 01:50:24:17
SeqEnd at FD94E4AB.
Bytes remaining in buffer = 0.
Bitrate - avg: 4813156, min: 382293 (lba 172), max: 9338880 (lba 2202185).
Shortest GOP has 2 fields, longest GOP has 30 fields.
Fields: 376228, VOBU: 12547, Sectors: 2210503.
02:19:57 Begin multiplex VMG.
02:19:57 End multiplex.
Summary of Virtual Memory Management
VM base 027d0000, reserved 5d000000, commited 00020000, free b9b0, disposable 0.
handle 1, size 14650 (83512 data), owner 80000001, time 0, locks 1 0 0, lcnt 1.
Locked by DBinit.
handle 0, size b9b0 (47512 data), owner 0, time 0, locks 0 0 0, lcnt 0.

Скриншоты меню


-
-
-

Доп.


-
-
-
-
-
-
[teatrix.ru].t7382.torrent 
Торрент: Зарегистрирован [ 2015-10-12 09:59 ] · E6952F2242C66FB696658F982D5257AE3A8FAE9B

Скачать .torrent

Скачать

23 KB

Статус: проверено
Скачан: 0 раз
Размер: 4.34 GB
terms.php



Быстрый ответ

Имя:

      
Для отправки сообщений необходимо включить JavaScript
Показать сообщения:    

Текущее время: 07-Дек 13:37

Часовой пояс: UTC + 3


Вы можете начинать темы
Вы можете отвечать на сообщения
Вы не можете редактировать свои сообщения
Вы не можете удалять свои сообщения
Вы не можете голосовать в опросах
Вы не можете прикреплять файлы к сообщениям
Вы можете скачивать файлы