Осенняя соната / Hostsonaten / Autumn Sonata (Ингмар Бергман / Ingmar Bergman) [1978, Франция, Германия (ФРГ), Швеция, Драма, Музыка, 2хDVD9 (Custom)] MVO ("Кармен видео") + Sub Eng, Rus + Original Swe / Criterion Collection#60


Статистика раздачи [Обновить пиров]
Размер:  15.36 GB   |    Зарегистрирован:  1 год 1 месяц   |    Скачан:  0 раз

Полного источника не было: 15 дней

 
   
 
 
 

[Цитировать]

Осенняя соната / Hostsonaten / Autumn Sonata / Criterion Collection#60
Страна:Франция, Германия (ФРГ), Швеция
Студия:Filmedis, Incorporated Television Company (ITC), Personafilm, Suede Film.
Жанр:Драма, Музыка
Год выпуска:1978
Продолжительность:01:33:57
Производитель:The Criterion Collection #60
Перевод :Профессиональный (многоголосый закадровый) Кармен видео
Cубтитры:Английские, Русский
Оригинальная аудиодорожка:Шведский
Премьера (мир):8.10.1978Релиз на DVD:17.05.2006,Кармен видеоРежиссер:Ингмар Бергман / Ingmar BergmanСценарий:Ингмар БергманОператор:Свен НюквистХудожник:Анна Асп, Ингер ПерссонМонтаж:Сильвия ИнгемарссонВ ролях:Ингрид Бергман — Шарлотта Андергаст
Лив Ульман — Эва
Лена Нюман — Хелена
Халвар Бьёрк — Виктор
Марианна Аминофф — секретарь Шарлотты
Арне Банг-Хансен — дядя Отто
Гуннар Бьёрнстранд — Поль
Эрланд Юзефсон — Йозеф
Мими Поллак — учительница фортепиано
Георг Лёккеберг — Леонардо
Линн Ульман — Эва в детстве
Описание: На судьбах одной семьи — известной пианистки Шарлотты Андергаст, ее мужа архитектора Юсефа, и их дочерей, Евы и Елены в фильме показывается крушение семейных уз, распад семьи.

Награды и номинации

Оскар, 1979 год
Номинации (2):
Лучшая женская роль (Ингрид Бергман)
Лучший сценарий
Золотой глобус, 1979 год
Победитель (1):
Лучший иностранный фильм — «Швеция»
Номинации (1):
Лучшая женская роль (драма) (Ингрид Бергман)
Сезар, 1979 год
Номинации (1):
Лучший фильм на иностранном языке

Знаете ли вы, что...

Прототипом образа Шарлотты Андергаст стала одна из жен Ингмара Бергмана — пианистка Кэби Ларетай.

Рецензия

Лара фон Триер(Кинопоиск)
Я люблю Бергмана. Это чувство проросло изнутри, неожиданно, как росток, процарапавшийся сквозь толщу.
Любовь — это поток энергии. Когда любовь превращается в ненависть? Когда объект, вызвавший поток энергии и любви, становится самоцелью. Нам кажется, что мы не сможем испытать счастье любви без этого объекта. Возникает маниакальная привязанность.
Что происходит с любовью в «Осенней сонате». Материнская любовь, ставшая нелюбовью, брезгливостью и пренебрежением. Дочерняя любовь, ставшая ненавистью. Говорят, что мы любим своих родителей и детей — безусловно, на подсознательном уровне, даже когда не ощущаем этого. Почему же мать ненавидит дочерей, а дочери ненавидят мать? Кажется, что слово «ненавидеть» слишком сильное для тех отношений, которые есть между ними? Ненавидеть — суть «не хотеть видеть». И это вполне описывает отношения героинь фильма. Дочь пишет письмо к матери, делая дежурное приглашение. А мать, оказывается, врёт и себе и дочери, говоря, что хочет остаться с ней навсегда и дорожит их отношениями.
Дочь только поначалу кажется ангелом по сравнению с чудовищной матерью. Но ангелам не свойственна ненависть. Ненависть — это нежелание принять боль расставания с объектом приложения любви. Ненависть — неспособность души генерировать любовь.
Что мешает дочери любить мать такой, как она есть, что заставляет её ненавидеть мать? Душевная алчность. Дочь не может принять отсутствие в своей жизни любящей матери, как не сможет принять и потерю ребёнка. Неприятие ситуации и вследствие этого неизбывная боль сидят в ней с детства. Стоит думать, что рано или поздно, она станет также ненавидеть сестру и ребёнка, если бы последний был жив. Но именно поэтому — сестра — инвалид, любить её трудно и больно, и это позволяет чувству любви не привязываться к объекту приложения любви. А сын — иллюзия, дух. А муж — мужчина, не вызывающий сильного чувства в ней. Всё это работает на исцеление её любви, на освобождение этого чувства от привязки к кому-либо и чему-либо.
Встреча дочери и матери, кажется моментом истины. Давние клубки сильных чувств выходят на поверхность. Может быть, это позволит понять, что ничто не имеет значения, всё преходяще и только та любовь, которая ни от чего не зависит, милосердствует, всё прощает и не ищет своего, имеет истинную ценность в нашей жизни.
Фильм гениален, он не осуждает мать и не жалеет дочь, он показывает органическое единство их проблем, растущих из одного корня. Общество, утратившее ориентиры, забывшее Бога и поклоняющееся женщине и всему земному, столкнётся с саморазрушением, отторжением людей друг от друга, ненавистью. Порча осквернит базовые константы. Женщины разучатся любить детей, дети возненавидят родителей. Глаз Бергмана невероятно точен в видении болячек. Смотреть-и-видеть патологию, называть её своими именами, способен тот, кто может её решить. Бергман видит патологию, Бергман смотрит на неё в упор и показывает её, как она есть. Бергман не может иначе. И поэтому не любить Бергмана — невозможно. И сам он полон богоданной любви к этому миру.
10 из 10
Доп. информация:Софт:PGCDemux (извлечение).
BeSweet, Sony Vegas 9 (звук).
DVD-lab PRO 2, Subtitle Workshop (субтитры).
MuxMan (сборка). DvdReMakePro (финал).Исходник найден в сети.Профессиональный (многоголосый, закадровый) Кармен видеои субтитры.В дорожке с комментариями понижен битрейт до 96,0 Кбит/сек.Одно меню переведенно в статику.Реавторинг Нордер.
Огромное Спасибо Всем, без чьей помощи этот релиз не состоялся бы!Бонусы:(Без перевода):Disc 1, 2- New 2K digital film restoration
- Introduction by director Ingmar Bergman from 2003
- Audio commentary featuring Bergman expert Peter Cowie
- The Making of “Autumn Sonata,” a three-and-a-half-hour program examining every aspect of the
production
- New interview with actor Liv Ullmann
- A 1981 conversation between actor Ingrid Bergman and critic John Russell Taylor at the National
Film Theatre in London
- Trailer
- English-dubbed track
- New English subtitle translationМеню:Английский, анимированное, озвученное.


Сэмпл Диск 1:http://multi-up.com/986154Сэмпл Диск 2:http://multi-up.com/986153Тип релиза:2хDVD9 (Custom)
Контейнер:DVD-Video
Видео:NTSC 16:9 (720x480) VBR, Auto Letterboxed, 6568 Кбит/сек, 23,976 кадра/сек
Аудио 1:Русский:AC3, 2 ch, 48.0 KHz, 192 Кбит/сек / Профессиональный (многоголосый закадровый) Кармен видеоАудио 2:Английский:AC3, 1 ch, 48.0 KHz, 192 Кбит/секАудио 3:Английский:AC3, 1 ch, 48.0 KHz, 96 Кбит/сек(Комментарий Ингмар Бергман, Peter Cowie)Аудио 4:Шведский:AC3, 1 ch, 48.0 KHz, 384 Кбит/сек (Оригинал)Формат субтитров: prerendered (DVD/IDX+SUB)

Dvd Info- Диск 1

Title: Disk 1
Size: 7.88 Gb ( 8 264 964,00 KBytes ) - DVD-9
Enabled regions: 1, 2, 3, 4, 5, 6, 7, 8
VTS_01 :
Play Length: 00:00:00
Video: NTSC 16:9 (720x480) VBR, Auto Letterboxed
VTS_02 :
Play Length: 01:33:57
Video: NTSC 16:9 (720x480) VBR, Auto Letterboxed
Audio:
Russian, AC3, 2/0 (L,R) ch, 192 kbps, Delay 0 mSec
English, AC3, 1/0 (C) ch, 192 kbps, Delay 0 mSec
English, AC3, 1/0 (C) ch, 96 kbps, Delay 0 mSec
Svenska, AC3, 1/0 (C) ch, 384 kbps, Delay 0 mSec
Subtitles:
English
Russian
VTS_03 :
Play Length: 00:00:20
Video: NTSC 16:9 (720x480) VBR, Auto Pan&Scan
VTS_04 :
Play Length: 00:39:22
Video: NTSC 4:3 (720x480) VBR
Audio:
English, AC3, 1/0 (C) ch, 192 kbps, Delay 0 mSec
VTS_05 :
Play Length: 00:02:30
Video: NTSC 16:9 (720x480) VBR, Auto Letterboxed
Audio:
Svenska, AC3, 1/0 (C) ch, 192 kbps, Delay 266 mSec
Subtitles:
English
VTS_06 :
Play Length: 00:18:53
Video: NTSC 16:9 (720x480) VBR, Auto Letterboxed
Audio:
English, AC3, 1/0 (C) ch, 192 kbps, Delay 0 mSec
Subtitles:
English
VTS_07 :
Play Length: 00:07:52
Video: NTSC 16:9 (720x480) VBR, Auto Letterboxed
Audio:
Svenska, AC3, 1/0 (C) ch, 192 kbps, Delay 0 mSec
Subtitles:
English
VTS_08 :
Play Length: 00:00:00
Video: NTSC 4:3 (720x480) VBR

Dvd Info- Диск 2

Title: Disk 2
Size: 7.48 Gb ( 7 838 108,00 KBytes ) - DVD-9
Enabled regions: 1, 2, 3, 4, 5, 6, 7, 8
VTS_01 :
Play Length: 00:00:00
Video: NTSC 16:9 (720x480) VBR, Auto Letterboxed
VTS_02 :
Play Length: 03:26:21
Video: NTSC 4:3 (720x480) VBR
Audio:
Svenska, AC3, 1/0 (C) ch, 192 kbps, Delay 0 mSec
Subtitles:
English
VTS_03 :
Play Length: 00:00:00
Video: NTSC 4:3 (720x480) VBR

MediaInfo- Диск 1

Общее
Полное имя : F:\Autumn Sonata 2хDVD-9_Custom_Criterion_#60\Disk 1\VIDEO_TS\VTS_02_2.VOB
Формат : MPEG-PS
Размер файла : 1024 Мбайт
Продолжительность : 18 м.
Режим общего битрейта : Переменный
Общий поток : 7583 Кбит/сек
Видео
Идентификатор : 224 (0xE0)
Формат : MPEG Video
Версия формата : Version 2
Профиль формата : Main@Main
Параметр BVOP формата : Да
Параметр матрицы формата : Выборочная
Параметр GOP формата : Variable
Продолжительность : 18 м.
Вид битрейта : Переменный
Битрейт : 6568 Кбит/сек
Максимальный битрейт : 9800 Кбит/сек
Ширина : 720 пикселей
Высота : 480 пикселей
Соотношение сторон : 16:9
Частота кадров : 23,976 кадра/сек
Стандарт вещания : NTSC
Цветовое пространство : YUV
Субдискретизация насыщенности : 4:2:0
Битовая глубина : 8 бит
Тип развёртки : Прогрессивная
Порядок развёртки : 2:3 Pulldown
Метод сжатия : С потерями
Бит/(Пиксели*Кадры) : 0.793
Временной код первого кадра : 01:15:25:16
Оригинал временного кода : Group of pictures header
Размер потока : 887 Мбайт (87%)
Аудио #1
Идентификатор : 189 (0xBD)-128 (0x80)
Формат : AC-3
Формат/Информация : Audio Coding 3
Расширение режима : CM (complete main)
Параметр Endianness формата : Big
Режим смешивания : DVD-Video
Продолжительность : 18 м.
Вид битрейта : Постоянный
Битрейт : 192 Кбит/сек
Каналы : 2 канала
Расположение каналов : Front: L R
Частота : 48,0 КГц
Битовая глубина : 16 бит
Метод сжатия : С потерями
Задержка видео : -318 мс.
Размер потока : 25,9 Мбайт (3%)
Аудио #2
Идентификатор : 189 (0xBD)-129 (0x81)
Формат : AC-3
Формат/Информация : Audio Coding 3
Расширение режима : CM (complete main)
Параметр Endianness формата : Big
Режим смешивания : DVD-Video
Продолжительность : 18 м.
Вид битрейта : Постоянный
Битрейт : 192 Кбит/сек
Каналы : 1 канал
Расположение каналов : Front: C
Частота : 48,0 КГц
Битовая глубина : 16 бит
Метод сжатия : С потерями
Задержка видео : -318 мс.
Размер потока : 25,9 Мбайт (3%)
Аудио #3
Идентификатор : 189 (0xBD)-130 (0x82)
Формат : AC-3
Формат/Информация : Audio Coding 3
Расширение режима : CM (complete main)
Параметр Endianness формата : Big
Режим смешивания : DVD-Video
Продолжительность : 18 м.
Вид битрейта : Постоянный
Битрейт : 96,0 Кбит/сек
Каналы : 1 канал
Расположение каналов : Front: C
Частота : 48,0 КГц
Битовая глубина : 16 бит
Метод сжатия : С потерями
Задержка видео : -222 мс.
Размер потока : 13,0 Мбайт (1%)
Аудио #4
Идентификатор : 189 (0xBD)-131 (0x83)
Формат : AC-3
Формат/Информация : Audio Coding 3
Расширение режима : CM (complete main)
Параметр Endianness формата : Big
Режим смешивания : DVD-Video
Продолжительность : 18 м.
Вид битрейта : Постоянный
Битрейт : 384 Кбит/сек
Каналы : 1 канал
Расположение каналов : Front: C
Частота : 48,0 КГц
Битовая глубина : 16 бит
Метод сжатия : С потерями
Задержка видео : -318 мс.
Размер потока : 51,8 Мбайт (5%)
Текст #1
Идентификатор : 189 (0xBD)-32 (0x20)
Формат : RLE
Формат/Информация : Run-length encoding
Режим смешивания : DVD-Video
Продолжительность : 18 м.
Задержка видео : 618 мс.
Текст #2
Идентификатор : 189 (0xBD)-33 (0x21)
Формат : RLE
Формат/Информация : Run-length encoding
Режим смешивания : DVD-Video
Продолжительность : 18 м.
Задержка видео : 618 мс.
Текст #3
Идентификатор : 189 (0xBD)-34 (0x22)
Формат : RLE
Формат/Информация : Run-length encoding
Режим смешивания : DVD-Video
Продолжительность : 18 м.
Задержка видео : 1 с. 218 мс.

MediaInfo- Диск 2

Общее
Полное имя : F:\Autumn Sonata_Criterion_#60\Disk 2\VIDEO_TS\VTS_02_1.VOB
Формат : MPEG-PS
Размер файла : 1024 Мбайт
Продолжительность : 29 м.
Режим общего битрейта : Переменный
Общий поток : 4923 Кбит/сек
Видео
Идентификатор : 224 (0xE0)
Формат : MPEG Video
Версия формата : Version 2
Профиль формата : Main@Main
Параметр BVOP формата : Да
Параметр матрицы формата : Выборочная
Параметр GOP формата : Variable
Продолжительность : 29 м.
Вид битрейта : Переменный
Битрейт : 4633 Кбит/сек
Максимальный битрейт : 9800 Кбит/сек
Ширина : 720 пикселей
Высота : 480 пикселей
Соотношение сторон : 4:3
Частота кадров : 23,976 кадра/сек
Стандарт вещания : NTSC
Цветовое пространство : YUV
Субдискретизация насыщенности : 4:2:0
Битовая глубина : 8 бит
Тип развёртки : Прогрессивная
Порядок развёртки : 2:3 Pulldown
Метод сжатия : С потерями
Бит/(Пиксели*Кадры) : 0.559
Временной код первого кадра : 01:00:00:00
Оригинал временного кода : Group of pictures header
Размер потока : 964 Мбайт (94%)
Аудио
Идентификатор : 189 (0xBD)-128 (0x80)
Формат : AC-3
Формат/Информация : Audio Coding 3
Расширение режима : CM (complete main)
Параметр Endianness формата : Big
Режим смешивания : DVD-Video
Продолжительность : 29 м.
Вид битрейта : Постоянный
Битрейт : 192 Кбит/сек
Каналы : 1 канал
Расположение каналов : Front: C
Частота : 48,0 КГц
Битовая глубина : 16 бит
Метод сжатия : С потерями
Размер потока : 39,9 Мбайт (4%)
Текст
Идентификатор : 189 (0xBD)-32 (0x20)
Формат : RLE
Формат/Информация : Run-length encoding
Режим смешивания : DVD-Video
Продолжительность : 28 м.
Задержка видео : 634 мс.

Скриншоты меню-Диск 1


Скриншоты фильма-Диск 1

Скриншоты доп. материалов-Диск 1



Скриншоты меню-Диск 2


Скриншоты доп. материалов-Диск 2

Полиграфия






[teatrix.ru].t7388.torrent 
Торрент: Зарегистрирован [ 2015-10-12 09:59 ] · 610D2DCBA58C67FE17DE7EC409C973F6DBD0FA21

Скачать .torrent

Скачать

81 KB

Статус: проверено
Скачан: 0 раз
Размер: 15.36 GB
terms.php



Быстрый ответ

Имя:

      
Для отправки сообщений необходимо включить JavaScript
Показать сообщения:    

Текущее время: 07-Дек 15:34

Часовой пояс: UTC + 3


Вы можете начинать темы
Вы можете отвечать на сообщения
Вы не можете редактировать свои сообщения
Вы не можете удалять свои сообщения
Вы не можете голосовать в опросах
Вы не можете прикреплять файлы к сообщениям
Вы можете скачивать файлы