Невинный / L'Innocente (Лукино Висконти / Luchino Visconti) [1976, Италия, Франция, Драма, Мелодрама, DVD5] MVO (SomeWax) + Sub Eng + Original Ita / SomeWax


Статистика раздачи [Обновить пиров]
Размер:  3.9 GB   |    Зарегистрирован:  1 год 1 месяц   |    Скачан:  0 раз

Полного источника не было: Никогда

 
   
 
 
 

[Цитировать]

Невинный / L'Innocente / SomeWax «Luchino Visconti's Epic Final Film»
Страна:Италия, Франция
Студия:Francoriz Production, Imp.Ex.Ci., Les Films Jacques Leitienne, Rizzoli Film S.p.a.
Жанр:Драма, Мелодрама
Год выпуска:1976
Продолжительность:02:03:20
Производитель:SomeWax
Перевод :Профессиональный (многоголосый закадровый)
Cубтитры:Английские
Оригинальная аудиодорожка:Итальянский
Премьера (мир):14.05.1976Релиз на DVD:21.08.2008, «Cinema Prestige»Режиссер:Лукино Висконти / Luchino Visconti
Продюсер:Джованни Бертолуччи, Лучио ТрентиниСценарий:Сузо Чекки д’Амико, Энрико Медиоли, Лукино ВисконтиОператор:Паскуалино Де СантисКомпозитор:Франко МанниноХудожник:Марио Гарбулья, Пьеро Този, Карло ДжервасиМонтаж:Руджеро Мастроянни
В ролях:Джанкарло Джаннини — Туллио Эрмиль
Лаура Антонелли — Джулиана Эрмиль
Дженнифер О’Нил — Тереза Раффо
Рина Морелли — мать Туллио
Массимо Джиротти — граф Стефано Эгано
Дидье Одепен — Федерико Эрмиль
Мари Дюбуа — принцесса
Роберта Паладини — Эльвиретта
Клод Манн — принц
Марк Порель — Филиппо д’Арборио
Описание:Аристократ Туллио Эрмилио изменяет красавице жене со светской львицей графиней Раффо. Жена вызывает у него лишь тоску и приступы тихой ненависти.
Но когда он узнает, что у Джулианы интрижка с молодым романистом, и ожидаемый ею ребенок, возможно, зачат не от него, в Туллио внезапно просыпается дикая ревность. Не в силах смириться с мыслью, что его тихая, верная Джулиана изменила ему, он идет на крайние меры…
Висконти, Лукино-http://ru.wikipedia.org/wiki/%D0%92%D0%B8%D1%81%D0%...0%B8%D0%BD%D0%BE Фильм-http://ru.wikipedia.org/wiki/%D0%9D%D0%B5%D0%B2%D0%...%8C%D0%BC,_1976)Джаннини, Джанкарло-http://ru.wikipedia.org/wiki/%D0%94%D0%B6%D0%B0%D0%...0%B8%D0%BD%D0%B8Знаете ли вы, что...">

Это интересноВисконти, Лукино-http://ru.wikipedia.org/wiki/%D0%92%D0%B8%D1%81%D0%...0%B8%D0%BD%D0%BE Фильм-http://ru.wikipedia.org/wiki/%D0%9D%D0%B5%D0%B2%D0%...%8C%D0%BC,_1976)Джаннини, Джанкарло-http://ru.wikipedia.org/wiki/%D0%94%D0%B6%D0%B0%D0%...0%B8%D0%BD%D0%B8Знаете ли вы, что...


Первоначально в главной роли Лукино Висконти планировал снимать своего давнего протеже Алена Делона. Фигура Джанкарло Джаннини возникла из-за сорвавшихся переговоров с французским актёром.
Исполнители главных ролей — Джанкарло Джаннини и Лаура Антонелли за два года до съёмок у Лукино Висконти уже играли вместе в фильме Дино Ризи «Безумный секс».

Награды и номинации

1976 — Премия «Давид ди Донателло»
Лучшая музыка — Франко Маннино

Рецензия

marina357(КиноПоиск)
«Невинный» — драма Лукино Висконти; заключительный фильм в творчестве великого итальянского режиссера.
Главный герой фильма аристократ Тулио убежденный гедонист, он не признает принятых в обществе норм и ценностей, мерилом его счастья/несчастья является его обеспеченность наслаждениями. Он «договорился» со своей женой Джулианой о свободных отношениях и увлекается светской львицей вдовой Раффо. Все меняется, когда герой осознает, что его жена тоже может быть кому-то интересна. «Что имеем — не храним, потерявши — плачем».
Эгоист Тулио. Тихая и верная Джулиана. Светская львица леди Раффо. Сын Джулианы. Писатель д’Арборио. Кто из них невинен?
По сути, каждый имеет свой грех. Но виной тому не они сами, а обстоятельства. Каждый из них принадлежит к классу разлагающейся аристократии, к классу, где не осталось ничего святого. Старые нормы перестали себя оправдывать, а новые…Душевная пустота поглощающая каждого, толкающая на ужасные поступки. Невинные в своей убогости и несчастные в своей душевной уродливости.
Но почему — Джулиана? Если Тулио пренебрегал все общечеловеческие правила, то Джулиана при всей своей 100-процентной положительности совершила еще большее преступление, оставшись с Тулио, и став причиной убийства/не убийства собственного ребенка. Бездействие тоже преступление.
Невольно данная картина ассоциируется с «Гилью Богов» того же режиссера. Во многом благодаря атмосфере. Насыщенные красные, багровые и черные оттенки поражают своей глубиной и в тоже время бросают в дрожь своей удушливостью. Оператор Паскулино де Сантис, брат режиссера Джузеппе де Сантиса, крупными планами смог передать замечательную игру актеров Джанкарло Джаннини, Лауры Антонелли.
8 из 10
Бонусы:Кадры. Рекламный ролик.Меню:Русский / Английский, статичное, неозвученное.

Сэмпл Диск:http://multi-up.com/982248
Тип релиза:DVD5
Контейнер:DVD-Video
Видео:NTSC 16:9 (720x480) VBR, Auto Letterboxed, 4163 Кбит/сек, 29,970 кадров/сек
Аудио 1:Итальянский:AC3, 2 ch, 48.0 KHz, 192 Кбит/сек (Оригинал)
Аудио 2:Русский:AC3, 2 ch, 48.0 KHz, 192 Кбит/сек / SomeWax
Формат субтитров: prerendered (DVD/IDX+SUB)

Dvd Info

Title: L'innocente_Dvdх5
Size: 3.90 Gb ( 4 085 920,00 KBytes ) - DVD-5
Enabled regions: 1, 2, 3, 4, 5, 6, 7, 8
VTS_01 :
Play Length: 02:03:20
Video: NTSC 16:9 (720x480) VBR, Auto Letterboxed
Audio:
Italiano, AC3, 2/0 (L,R) ch, 192 kbps, Delay 0 mSec
Russian, AC3, 2/0 (L,R) ch, 192 kbps, Delay 0 mSec
Subtitles:
English

MediaInfo

Общее
Полное имя: F:\ L'innocente_Dvdх5\VIDEO_TS\VTS_01_1.VOB
Формат : MPEG-PS
Размер файла : 1024 Мбайт
Продолжительность : 30 м.
Режим общего битрейта : Переменный
Общий поток : 4640 Кбит/сек
Видео
Идентификатор : 224 (0xE0)
Формат : MPEG Video
Версия формата : Version 2
Профиль формата : Main@Main
Параметр BVOP формата : Да
Параметр матрицы формата : Выборочная
Параметр GOP формата : M=3, N=15
Продолжительность : 30 м.
Вид битрейта : Переменный
Битрейт : 4163 Кбит/сек
Максимальный битрейт : 8000 Кбит/сек
Ширина : 720 пикселей
Высота : 480 пикселей
Соотношение сторон : 16:9
Частота кадров : 29,970 кадров/сек
Стандарт вещания : NTSC
Цветовое пространство : YUV
Субдискретизация насыщенности : 4:2:0
Битовая глубина : 8 бит
Тип развёртки : Чересстрочная
Порядок развёртки : Верхнее поле первое
Метод сжатия : С потерями
Бит/(Пиксели*Кадры) : 0.402
Временной код первого кадра : 00:00:00:00
Оригинал временного кода : Group of pictures header
Размер потока : 919 Мбайт (90%)
Аудио #1
Идентификатор : 189 (0xBD)-128 (0x80)
Формат : AC-3
Формат/Информация : Audio Coding 3
Расширение режима : CM (complete main)
Параметр Endianness формата : Big
Режим смешивания : DVD-Video
Продолжительность : 30 м.
Вид битрейта : Постоянный
Битрейт : 192 Кбит/сек
Каналы : 2 канала
Расположение каналов : Front: L R
Частота : 48,0 КГц
Битовая глубина : 16 бит
Метод сжатия : С потерями
Размер потока : 42,4 Мбайт (4%)
Аудио #2
Идентификатор : 189 (0xBD)-129 (0x81)
Формат : AC-3
Формат/Информация : Audio Coding 3
Расширение режима : CM (complete main)
Параметр Endianness формата : Big
Режим смешивания : DVD-Video
Продолжительность : 30 м.
Вид битрейта : Постоянный
Битрейт : 192 Кбит/сек
Каналы : 2 канала
Расположение каналов : Front: L R
Частота : 48,0 КГц
Битовая глубина : 16 бит
Метод сжатия : С потерями
Размер потока : 42,4 Мбайт (4%)
Текст
Идентификатор : 189 (0xBD)-32 (0x20)
Формат : RLE
Формат/Информация : Run-length encoding
Режим смешивания : DVD-Video

Скриншоты меню

Скриншоты

Скриншоты доп. материалов

Полиграфия












[teatrix.ru].t7403.torrent 
Торрент: Зарегистрирован [ 2015-10-12 09:59 ] · 8D59E6432955F5239181B63A4EB7DE0C12B4DC2F

Скачать .torrent

Скачать

20 KB

Статус: проверено
Скачан: 0 раз
Размер: 3.9 GB
terms.php



Быстрый ответ

Имя:

      
Для отправки сообщений необходимо включить JavaScript
Показать сообщения:    

Текущее время: 08-Дек 23:09

Часовой пояс: UTC + 3


Вы можете начинать темы
Вы можете отвечать на сообщения
Вы не можете редактировать свои сообщения
Вы не можете удалять свои сообщения
Вы не можете голосовать в опросах
Вы не можете прикреплять файлы к сообщениям
Вы можете скачивать файлы