Замок (Алексей Балабанов) [1994, Россия, Германия, Франция, Драма, DVD5] + Sub Eng + Original Rus


Статистика раздачи [Обновить пиров]
Размер:  4.32 GB   |    Зарегистрирован:  1 год 1 месяц   |    Скачан:  0 раз

Полного источника не было: Никогда

 
   
 
 
 

[Цитировать]

Замок
Страна:Россия, Германия, Франция
Студия:Биоскоп Фильм, Centre National de la Cinematographie (CNC), Ленфильм, Orient Express, Роскомкино.
Жанр:Драма
Год выпуска:1994
Продолжительность:01:49:12Производитель:СТВПеревод:Не требуется
Cубтитры:Английские
Оригинальная аудиодорожка:Русский
Релиз на DVD:25.10.2007, «Союз-Видео»
Режиссер:Алексей Балабанов
Сценарий:Алексей Балабанов, Сергей Сельянов, Франц Кафка
Продюсер:Геннадий ПетелинОператор:Сергей Юриздицкий, Андрей ЖегаловКомпозитор:Сергей КурехинХудожник:Владимир Карташов, Надежда Васильева, Валерий ЧернявскийМонтаж: Тамара ЛипартияВ ролях:Николай Стоцкий — ЗемлемерСветлана Письмиченко — Фрида
Виктор Сухоруков — Помощник Землемера
Анвар Либабов — Помощник Землемера
Игорь Шибанов — Брунсвик
Андрей Смирнов — Учитель
Владислав Демченко — Варнава
Ольга Антонова — Хозяйка трактира
Виктор Смирнов — Эрлангер
Алексей Герман — Кламм
Андрей Носков — Мом
Елена Абросимова — Пеппи
Болот Бейшеналиев — Деревенский староста
Ричард Богуцкий — Хозяин гостиницы «Господский двор»
Константин Демидов — Шварцер
Валерий Криштапенко
Владимир Кузнецов — Ханс
Светлана Свирко — Ольга
Светлана Серваль — Амалия
Юлия Соболевская — Милена Брунсвик
Ирина Соколова — Мицци
Юрий Эллер — Герстекер
Игорь Павлов
Владимир Труханов
Описание:Господин Землемер приглашен Замком для ведения соответствующих работ. Прибыв в Деревню, он с удивлением обнаруживает, что здесь его никто не ждет. Попытки доказать свои права наталкивается на стену непонимания. Желание проникнуть в загадочный Замок все сильнее овладевает героем…

Это интересно...

Фильм снят по мотивам романа Франца Кафки «Замок» (Das Schloss, 1926), изданного после смерти писателя.Фильм-http://ru.wikipedia.org/wiki/%D0%97%D0%B0%D0%BC%D0%...%8C%D0%BC,_1994)Балабанов, Алексей -http://ru.wikipedia.org/wiki/%D0%90%D0%BB%D0%B5%D0%...0%BD%D0%BE%D0%B2

Награды и номинации

1994 Кинофестиваль «Созвездие»
Приз за лучшую мужскую роль второго плана (Анвар Либабов)
Приз за лучшую мужскую роль второго плана (Виктор Сухоруков)
Конкурс профессиональных премий к/с «Ленфильм» и Ленинградского отделения СК
Премия им. А. Москвина за лучшую операторскую работу (Андрей Жегалов)
Конкурс профессиональных премий киностудии «Ленфильм»
Премия им. И. Волка за лучшую работу звукорежиссера (Кирилл Кузьмин)
Премия им. А. Москвина за лучшую операторскую работу (Сергей Юриздицкий)
Кинофестиваль «Кинотавр» в Сочи
Приз жюри киноклубов (Алексей Балабанов)
Премия «Ника»
За лучшую работу художника по костюмам (Надежда Васильева)
За лучшую работу художника (Владимир Карташов)
Приз «Зеленое яблоко — золотой листок»
За лучшую работу художника по костюмам (Надежда Васильева)
1995 Конкурс профессиональных премий киностудии «Ленфильм»
Премия им. Г. Козинцева (Алексей Балабанов)
Международный кинофестиваль молодого кино «Кинофорум»
Приз «Золотой гвоздь» в номинации «Киноманифест» (Алексей Балабанов)
Кинофестиваль «Литература и кино» в Гатчине
Специальный приз жюри «За выдающееся решение сложной творческой задачи соответствующей духу и стилю литературного произведения» (Алексей Балабанов)
Меню:Русский, анимированное, озвученное.
Сэмпл:http://multi-up.com/980083
Тип релиза:DVD5
Контейнер:DVD-Video
Видео:PAL 4:3 (720x576) VBR, 5093 Кбит/сек, 25,000 кадров/сек
Аудио:Русский: AC3, 6 ch, 48,0 КГц, 448 Kbps
Формат субтитров:prerendered (DVD/IDX+SUB)

Dvd Info

Title: Замок_DVD5
Size: 4.32 Gb ( 4 527 972,00 KBytes ) - DVD-5
Enabled regions: 1, 2, 3, 4, 5, 6, 7, 8
VTS_01 :
Play Length: 01:49:12
Video: PAL 4:3 (720x576) VBR
Audio:
Not specified (Dolby AC3, 6 ch)
Subtitles:
English
VTS_02 :
Play Length: {00:00:00}
Video: NTSC 4:3 (720x480) VBR, Auto Pan&Scan, Auto Letterboxed
VTS_03 :
Play Length: {00:00:00}
Video: NTSC 4:3 (720x480) VBR, Auto Pan&Scan, Auto Letterboxed

MediaInfo

Общее
Полное имя: F:\Замок_DVD5\VIDEO_TS\VTS_01_1.VOB
Формат : MPEG-PS
Размер файла : 1024 Мбайт
Продолжительность : 25 м.
Режим общего битрейта : Переменный
Общий поток : 5654 Кбит/сек
Видео
Идентификатор : 224 (0xE0)
Формат : MPEG Video
Версия формата : Version 2
Профиль формата : Main@Main
Параметр BVOP формата : Да
Параметр матрицы формата : Выборочная
Параметр GOP формата : M=3, N=15
Продолжительность : 25 м.
Вид битрейта : Переменный
Битрейт : 5093 Кбит/сек
Максимальный битрейт : 6000 Кбит/сек
Ширина : 720 пикселей
Высота : 576 пикселей
Соотношение сторон : 4:3
Частота кадров : 25,000 кадров/сек
Стандарт вещания : PAL
Цветовое пространство : YUV
Субдискретизация насыщенности : 4:2:0
Битовая глубина : 8 бит
Тип развёртки : Чересстрочная
Порядок развёртки : Нижнее поле первое
Метод сжатия : С потерями
Бит/(Пиксели*Кадры) : 0.491
Временной код первого кадра : 00:00:00:00
Оригинал временного кода : Group of pictures header
Размер потока : 922 Мбайт (90%)
Аудио
Идентификатор : 189 (0xBD)-128 (0x80)
Формат : AC-3
Формат/Информация : Audio Coding 3
Расширение режима : CM (complete main)
Параметр Endianness формата : Big
Режим смешивания : DVD-Video
Продолжительность : 25 м.
Вид битрейта : Постоянный
Битрейт : 448 Кбит/сек
Каналы : 6 каналов
Расположение каналов : Front: L C R, Side: L R, LFE
Частота : 48,0 КГц
Битовая глубина : 16 бит
Метод сжатия : С потерями
Размер потока : 81,1 Мбайт (8%)
Текст
Идентификатор : 189 (0xBD)-32 (0x20)
Формат : RLE
Формат/Информация : Run-length encoding
Режим смешивания : DVD-Video

Скриншоты меню

Скриншоты

Полиграфия

[teatrix.ru].t7414.torrent 
Торрент: Зарегистрирован [ 2015-10-12 09:59 ] · 483682F036155606074536B105C79AA320A7FDC4

Скачать .torrent

Скачать

23 KB

Статус: проверено
Скачан: 0 раз
Размер: 4.32 GB
terms.php



Быстрый ответ

Имя:

      
Для отправки сообщений необходимо включить JavaScript
Показать сообщения:    

Текущее время: 07-Дек 23:18

Часовой пояс: UTC + 3


Вы можете начинать темы
Вы можете отвечать на сообщения
Вы не можете редактировать свои сообщения
Вы не можете удалять свои сообщения
Вы не можете голосовать в опросах
Вы не можете прикреплять файлы к сообщениям
Вы можете скачивать файлы