Вечность и один день / Mia aioniotita kai mia mera / Eternity and a Day (Теодорос (Тео) Ангелопулос / Theodoros (Theo) Angelopoulos) [1998, Греция, Италия, Германия, Франция, драма, DVD9 (Custom)] [16:9 PAL R2] VO, Sub Fre Rus (ГД), Orig Gre, DUB Fre


Статистика раздачи [Обновить пиров]
Размер:  6.73 GB   |    Зарегистрирован:  1 год 1 месяц   |    Скачан:  3 раза

Полного источника не было: 12 часов

 
   
 
 
 

[Цитировать]

Вечность и один день / Mia aioniotita kai mia mera / Μια αιωνιότητα και μια μέρα
L'éternité et un jour / Eternity and a Day

16:9 PAL R2
Страна: Греция, Италия, Германия, Франция
Студия: Theo Angelopoulos Films, Greek Film Center, Greek Television ET-1, Intermédias, Paradis Films, La Sept Cinéma, Canal+, Classic, Istituto Luce, Arte, Westdeutscher Rundfunk (WDR), Eurimages.
Жанр: драма
Год выпуска: 1998
Продолжительность: 02:07:29
Перевод: Одноголосый закадровый
Cубтитры: французские, русские(ГД)
Оригинальная аудиодорожка: Греческий
Режиссер: Тео Ангелопулос / Theo Angelopoulos
В ролях: Бруно Ганц, Изабель Рено, Фабрицио Бентивольо, Акилеас Скевис, Александра Ладику, Деспина Бебеделли, Елени Герасимиду, Ирис Шациантониу, Никос Курос, Алекос Удинотис ...
Описание: Знаменитый писатель узнает, что тяжело болен и проживет лишь один день. Он встречает мальчика-албанца и решает посвятить маленькому нелегалу этот день — то время, что ему отпущено.
Доп. информация: Диск собран из L'éternité et un jour_1998_DVD9 R2 найденного в сети. (Который на постере)
Бонусы:
Interview avec le réalisateur
Filmographies réalisateur et acteurs
Меню: Частично-анимированное, неозвученное, на французском.Меню неотредактировано, переключение звуковых дорожек и субтитров с пульта.
Фильм автоматический стартует с рус. звук. дорожкой.
-- -
-

Награды


-
-Mia aioniotita kai mia mera_(Vechnost i odin den)_1998_DVD9 R2_Sample_.rar-
-

Точка перехода на второй слой


-
-Тип релиза: DVD9 (Custom)
Контейнер: DVD-Video
Видео: PAL 16:9 (720x576) VBR Auto Letterboxed, ~ 7224.43 kbps avg
Аудио 1: Greek, MPA, 2/0 (L,R) ch, 384 Kbps, Delay = 0 mSec
Аудио 2: Francais, MPA, 2/0 (L,R) ch, 192 Kbps, Delay = 0 mSec
Аудио 3: Russian, AC3, 2/0 (L,R) ch, 192 kbps, Delay 0 mSec
Формат субтитров: prerendered (DVD/IDX+SUB)

MediaInfo

General
Complete name : Mia aioniotita kai mia mera_(Vechnost i odin den)_1998_DVD9 R2\VIDEO_TS\VTS_01_2.VOB
Format : MPEG-PS
File size : 1 024 MiB
Duration : 19mn 28s
Overall bit rate mode : Variable
Overall bit rate : 7 349 Kbps
Video
ID : 224 (0xE0)
Format : MPEG Video
Format version : Version 2
Format profile : Main@Main
Format settings, BVOP : Yes
Format settings, Matrix : Default
Format settings, GOP : M=3, N=13
Duration : 19mn 28s
Bit rate mode : Variable
Bit rate : 6 435 Kbps
Maximum bit rate : 7 500 Kbps
Width : 720 pixels
Height : 576 pixels
Display aspect ratio : 16:9
Frame rate : 25.000 fps
Standard : PAL
Color space : YUV
Chroma subsampling : 4:2:0
Bit depth : 8 bits
Scan type : Interlaced
Scan order : Top Field First
Compression mode : Lossy
Bits/(Pixel*Frame) : 0.621
Time code of first frame : 10:21:39:05
Time code source : Group of pictures header
Stream size : 896 MiB (88%)
Color primaries : BT.601 PAL
Transfer characteristics : BT.470 System B, BT.470 System G
Matrix coefficients : BT.601
Audio #1
ID : 192 (0xC0)
Format : MPEG Audio
Format version : Version 1
Format profile : Layer 2
Duration : 19mn 28s
Bit rate mode : Constant
Bit rate : 384 Kbps
Channel(s) : 2 channels
Sampling rate : 48.0 KHz
Compression mode : Lossy
Delay relative to video : -656ms
Stream size : 53.5 MiB (5%)
Audio #2
ID : 193 (0xC1)
Format : MPEG Audio
Format version : Version 1
Format profile : Layer 2
Duration : 19mn 28s
Bit rate mode : Constant
Bit rate : 192 Kbps
Channel(s) : 2 channels
Sampling rate : 48.0 KHz
Compression mode : Lossy
Delay relative to video : -608ms
Stream size : 26.8 MiB (3%)
Audio #3
ID : 189 (0xBD)-130 (0x82)
Format : AC-3
Format/Info : Audio Coding 3
Mode extension : CM (complete main)
Format settings, Endianness : Big
Muxing mode : DVD-Video
Duration : 19mn 28s
Bit rate mode : Constant
Bit rate : 192 Kbps
Channel(s) : 2 channels
Channel positions : Front: L R
Sampling rate : 48.0 KHz
Bit depth : 16 bits
Compression mode : Lossy
Delay relative to video : -592ms
Stream size : 26.8 MiB (3%)
Text #1
ID : 189 (0xBD)-32 (0x20)
Format : RLE
Format/Info : Run-length encoding
Muxing mode : DVD-Video
Delay relative to video : 2s 880ms
Text #2
ID : 189 (0xBD)-33 (0x21)
Format : RLE
Format/Info : Run-length encoding
Muxing mode : DVD-Video
Delay relative to video : 3s 0ms
Menu

DVD Info

Title: Mia aioniotita kai mia mera_(Vechnost i odin den)_1998_DVD9 R2
Size: 6.73 Gb ( 7 055 332,00 KBytes ) - DVD-9
Enabled regions: 1, 2, 3, 4, 5, 6, 7, 8
VTS_01 :
Play Length: 02:07:29
Video: PAL 16:9 (720x576) VBR, Auto Letterboxed
Audio:
Greek (MPEG1, 2 ch)
Francais (MPEG1, 2 ch)
Russian (Dolby AC3, 2 ch)
Subtitles:
Francais
Russian
VTS_02 :
Play Length: 00:09:41
Video: PAL 4:3 (720x576) VBR
Audio:
Francais (MPEG1, 2 ch)
* Menus Information *
VIDEO_TS Menu
Video:
PAL 4:3 (720x576) VBR
Audio:
Not specified (MPEG1, 2 ch)
Francais Language Unit :
Title Menu
VTS_01 Menu
Video:
PAL 4:3 (720x576) VBR
Francais Language Unit :
Root Menu
VTS_02 Menu
Video:
NTSC 4:3 (720x480) VBR
Auto Pan&Scan, Auto Letterboxed
Francais Language Unit :
Root Menu

П. О.

PgcDemux 1.2.0.5 - разделение компонентов диска на файлы;
BeSweetv1.5b31+BeLight 0.21 - mpa, mp3 -> Wav
Sound Forge pro 10 - Wav -> AC3
MaestroSBT-Unicode-2.6.2.1 - Создание субтитров
DVDSubEdit -- Version 1.52 - Правка (цветовых схем) субтитров
MuxMan DVD authoring Professional 1.4.4 - мультиплексирование и авторинг DVD;
DVDRemake Pro 3.6.4 - реавторинг DVD;
DVD Shrink 3.2 - Сэмпл
VLC - Скриншоты-
-
-

-
-
-BeSweet v1.5b31 by DSPguru.
--------------------------
Using hip.dll v1.19 by Myers Carpenter
Logging start : 05/22/14 , 13:48:23.
BeSweet.exe -core( -input C:\Temp\Den\AudioFile_C1.mpa -output C:\Temp\Den\AudioFile_C1.wav -2ch -logfile C:\Temp\Den\AudioFile_C1.log ) -azid( -s mono -L -3db )
[00:00:00:000] +------- BeSweet -----
[00:00:00:000] | Input : C:\Temp\Den\AudioFile_C1.mpa
[00:00:00:000] | Output: C:\Temp\Den\AudioFile_C1.wav
[00:00:00:000] | Floating-Point Process: No
[00:00:00:000] | Source Sample-Rate: 48.0KHz
[00:00:00:000] +---------------------
[02:07:29:400] Conversion Completed !
[02:07:29:400] Actual Avg. Bitrate : 413kbps
[00:01:19:000]
[teatrix.ru].t7432.torrent 
Торрент: Зарегистрирован [ 2015-10-12 09:59 ] · 2AAC979A6C9ED82AC1EA74A488C9AA34925C15F6

Скачать .torrent

Скачать

35 KB

Статус: проверено
Скачан: 3 раз
Размер: 6.73 GB
terms.php



Быстрый ответ

Имя:

      
Для отправки сообщений необходимо включить JavaScript
Показать сообщения:    

Текущее время: 04-Дек 13:17

Часовой пояс: UTC + 3


Вы можете начинать темы
Вы можете отвечать на сообщения
Вы не можете редактировать свои сообщения
Вы не можете удалять свои сообщения
Вы не можете голосовать в опросах
Вы не можете прикреплять файлы к сообщениям
Вы можете скачивать файлы