Маркета Лазарова / Marketa Lazarová (Франтишек Влачил / Frantisek Vlacil) [1966, Чехословакия, Драма, Мелодрама, История, 2хDVD9 (Custom)] VO (Л. Машинский) + Sub Eng + Original Cze / Criterion Collection#661


Статистика раздачи [Обновить пиров]
Размер:  14.94 GB   |    Зарегистрирован:  1 год 1 месяц   |    Скачан:  0 раз

Полного источника не было: Никогда

 
   
 
 
 

[Цитировать]

Маркета Лазарова / Marketa Lazarova / Criterion Collection#661
Страна:Чехословакия
Студия:Filmove Studio Barrandov
Жанр:Драма, Мелодрама, История
Год выпуска:1966
Продолжительность:02:45:39
Производитель: The Criterion Collection#661
Перевод :Одноголосый закадровый Л.МашинскийCубтитры:АнглийскиеОригинальная аудиодорожка:Чешский
Премьера (мир):24.11.1967
Режиссер:Франтишек Влачил / Frantisek Vlacil
Сценарий:Франтишек Павличек, Франтишек Влачил, Владислав Ванчура
Продюсер:Josef OuzkyОператор:Бедржих БатькаКомпозитор:Зденек ЛишкаХудожник:Олдрич Окач, Теодор Пиштек, Джозеф ПавликМонтаж:Мирослав Гайек
В ролях:Йозеф Кемр, Магда Вашариова, Nada Hejna, Ярослав Моучка, Франтишек Велецки, Карел Васичек, Иван Палух, Мартин Мразек, Вацлав Слоуп, Pavla PolaskovaОписание:Фильм рассказывает о событиях середины XIII столетия, о времени, когда рыцари разбойничали на дорогах, когда христианство сводило счеты с верой в языческих богов, о времени, когда цена человеческой жизни сводилась к нулю.

Рецензия

Андрей Александрович(Кинопоиск)Ни плохие, ни хорошие средние века.С разницей меньше года вышли на экраны два фильма, выписавшие период средневековых мук и ломки своих государств — советский «Андрей Рублев» и, практически неизвестная у нас, чехословацкая «Маркета Лазарова». Обе ленты в своих странах, да и, пожалуй, в мировой истории кинематографии стали картинами эталонными с точки зрения высокой художественности, операторской работы и, главное, реалистичности.
Новаторский, для того времени картонных доспехов и жестяных мечей, нарочитый, выпуклый реализм, отображение грязи, крови, смерти поразил современников и определил направление исторического кинематографа на десятилетия. Средневековье, как оно есть без благородных рыцарей и прекрасных дам, мудрых князей и красивых поединков — мрачное, серое, унылое, но все-таки с проглядывающей местами сквозь отблески костров человечностью.
То ли Богемия, то ли Моравия, замшелый тринадцатый век, глубинка, до короля далеко, да и не поможет он скорее всего, на диких лесных дорогах шастают то ли рыцари, то ли разбойники. Сама Маркета по воле случая попадает в разбойничью слободку дикого семейства Козликов, да так и останется там, созерцая и участвуя в мрачных событиях противостояния старой Чехии и новой, постепенно надвигающейся королевской власти, старающейся изжить и прижать все то древнее, буйное, полуязыческое, что еще кроется в глуши болот и лесов.
Фильм смотреть физически сложно, несмотря на гениальную даже для нынешних искушенных времен режиссерскую и операторскую работу. Слишком страшны и жестоки экранные события. Если Тарковский делит эпизоды «Андрея Рублева», чередуя мрачнейшие картины с полными света и надежды, то здесь просто сумрак и чернь, безнадежная и жестокая борьба с разве что малой толикой любви. Но затраченные усилия вознаградят зрителя сполна.
10 из 10

Награды и номинации


Карловы Вары, 1992 год
Номинации (1):
Хрустальный глобус

Доп. информация:Софт:
PGCDemux (извлечение).
BeSweet, Sony Vegas 9 (звук).
MuxMan (сборка). DvdReMakePro (финал).Исходник найден в сети .Одноголосый закадровый-Л.Машинский
Реавторинг Нордер.Огромное Спасибо Всем, без чьей помощи этот релиз не состоялся бы!
Бонусы: (Без перевода):Диск 1:- New, restored digital film transfer
- New English subtitle translation- TrailerДиск 2:- New interviews with actors Magda Vasaryova, Ivan Paluch, and Vlastimil Harapes and costume designer Theodor Pistek
- New interviews with film historian Peter Hames and journalist and film critic Antonin Liehm
- In the Web of Time, a short documentary from 1989 by cinematographer Frantisek Uldrich, in which director Frantisek Vlacil discusses his filmmaking process
- Interview with Universal Production Partners technical director Ivo Marak about the film’s restoration
- Gallery of storyboards by Vlacil
Меню:Английский, статичное, озвученное
Сэмпл Диск 1:http://multi-up.com/974240Сэмпл Диск 2:http://multi-up.com/974241Тип релиза:2хDVD9 (Custom)
Контейнер:DVD-Video
Видео:NTSC 16:9 (720x480) VBR, Auto Letterboxed, 6283 Кбит/сек, 23,976 кадра/сек
Аудио 1:Русский:AC3, 2 ch, 48.0 KHz, 192 Кбит/сек Одноголосый закадровый Л.Машинский
Аудио 2:Чешский: AC3, 1 ch, 48.0 KHz, 192 Кбит/сек (Оригинал)
Формат субтитров: prerendered (DVD/IDX+SUB)

Dvd Info- Диск 1

Title: Диск 1
Size: 7.67 Gb ( 8 044 684,00 KBytes ) - DVD-9
Enabled regions: 1, 2, 3, 4, 5, 6, 7, 8
VTS_01 :
Play Length: 00:00:00
Video: NTSC 16:9 (720x480) VBR, Auto Letterboxed
VTS_02 :
Play Length: 02:45:39
Video: NTSC 16:9 (720x480) VBR, Auto Letterboxed
Audio:
Russian, AC3, 2/0 (L,R) ch, 192 kbps, Delay 0 mSec
Czech(Ceske), AC3, 1/0 (C) ch, 192 kbps, Delay 0 mSec
Subtitles:
English
VTS_03 :
Play Length: 00:00:20
Video: NTSC 16:9 (720x480) VBR, Auto Pan&Scan
VTS_04 :
Play Length: 00:02:39
Video: NTSC 16:9 (720x480) VBR, Auto Letterboxed
Audio:
Czech(Ceske), AC3, 1/0 (C) ch, 192 kbps, Delay 0 mSec
VTS_05 :
Play Length: 00:00:00
Video: NTSC 4:3 (720x480) VBR

Dvd Info- Диск 2

Title: Диск 2
Size: 7.26 Gb ( 7 617 420,00 KBytes ) - DVD-9
Enabled regions: 1, 2, 3, 4, 5, 6, 7, 8
VTS_01 :
Play Length: 00:00:00
Video: NTSC 16:9 (720x480) VBR, Auto Letterboxed
VTS_02 :
Play Length: 00:00:14
Video: NTSC 16:9 (720x480) VBR, Auto Letterboxed
Subtitles:
English
VTS_03 :
Play Length: 00:27:00
Video: NTSC 16:9 (720x480) VBR, Auto Letterboxed
Audio:
Czech(Ceske) (Dolby AC3, 1 ch)
Subtitles:
English
VTS_04 :
Play Length: 00:21:22
Video: NTSC 4:3 (720x480) VBR
Audio:
Czech(Ceske) (Dolby AC3, 1 ch)
Subtitles:
English
VTS_05 :
Play Length: 00:17:42
Video: NTSC 16:9 (720x480) VBR, Auto Letterboxed
Audio:
English (Dolby AC3, 1 ch)
VTS_06 :
Play Length: 00:09:37
Video: NTSC 16:9 (720x480) VBR, Auto Letterboxed
Audio:
Czech(Ceske) (Dolby AC3, 1 ch)
Subtitles:
English
VTS_07 :
Play Length: 00:09:42
Video: NTSC 16:9 (720x480) VBR, Auto Letterboxed
Audio:
Czech(Ceske) (Dolby AC3, 1 ch)
Subtitles:
English
VTS_08 :
Play Length: 00:39:57
Video: NTSC 16:9 (720x480) VBR, Auto Letterboxed
Audio:
Czech(Ceske) (Dolby AC3, 1 ch)
Subtitles:
English
VTS_09 :
Play Length: 00:00:00
Video: NTSC 4:3 (720x480) VBR

MediaInfo- Диск 1

Общее
Полное имя:F:\Marketa Lazarova 2хDVD-9_Custom_Criterion_#661\Диск 1\VIDEO_TS\VTS_02_4.VOB
Формат : MPEG-PS
Размер файла : 1024 Мбайт
Продолжительность : 21 м.
Режим общего битрейта : Переменный
Общий поток : 6802 Кбит/сек
Видео
Идентификатор : 224 (0xE0)
Формат : MPEG Video
Версия формата : Version 2
Профиль формата : Main@Main
Параметр BVOP формата : Да
Параметр матрицы формата : Выборочная
Параметр GOP формата : M=3, N=12
Продолжительность : 21 м.
Вид битрейта : Переменный
Битрейт : 6283 Кбит/сек
Максимальный битрейт : 9800 Кбит/сек
Ширина : 720 пикселей
Высота : 480 пикселей
Соотношение сторон : 16:9
Частота кадров : 23,976 кадра/сек
Стандарт вещания : NTSC
Цветовое пространство : YUV
Субдискретизация насыщенности : 4:2:0
Битовая глубина : 8 бит
Тип развёртки : Прогрессивная
Порядок развёртки : 2:3 Pulldown
Метод сжатия : С потерями
Бит/(Пиксели*Кадры) : 0.758
Временной код первого кадра : 02:06:55:01
Оригинал временного кода : Group of pictures header
Размер потока : 945 Мбайт (92%)
Аудио #1
Идентификатор : 189 (0xBD)-128 (0x80)
Формат : AC-3
Формат/Информация : Audio Coding 3
Расширение режима : CM (complete main)
Параметр Endianness формата : Big
Режим смешивания : DVD-Video
Продолжительность : 21 м.
Вид битрейта : Постоянный
Битрейт : 192 Кбит/сек
Каналы : 2 канала
Расположение каналов : Front: L R
Частота : 48,0 КГц
Битовая глубина : 16 бит
Метод сжатия : С потерями
Задержка видео : -622 мс.
Размер потока : 28,9 Мбайт (3%)
Аудио #2
Идентификатор : 189 (0xBD)-129 (0x81)
Формат : AC-3
Формат/Информация : Audio Coding 3
Расширение режима : CM (complete main)
Параметр Endianness формата : Big
Режим смешивания : DVD-Video
Продолжительность : 21 м.
Вид битрейта : Постоянный
Битрейт : 192 Кбит/сек
Каналы : 1 канал
Расположение каналов : Front: C
Частота : 48,0 КГц
Битовая глубина : 16 бит
Метод сжатия : С потерями
Задержка видео : -622 мс.
Размер потока : 28,9 Мбайт (3%)
Текст #1
Идентификатор : 189 (0xBD)-32 (0x20)
Формат : RLE
Формат/Информация : Run-length encoding
Режим смешивания : DVD-Video
Текст #2
Идентификатор : 189 (0xBD)-33 (0x21)
Формат : RLE
Формат/Информация : Run-length encoding
Режим смешивания : DVD-Video

MediaInfo- Диск 2

Общее
Полное имя: F:\Marketa Lazarova 2хDVD-9_Custom_Criterion_#661\Диск 2\VIDEO_TS\VTS_03_1.VOB
Формат : MPEG-PS
Размер файла : 1024 Мбайт
Продолжительность : 17 м.
Режим общего битрейта : Переменный
Общий поток : 8301 Кбит/сек
Видео
Идентификатор : 224 (0xE0)
Формат : MPEG Video
Версия формата : Version 2
Профиль формата : Main@Main
Параметр BVOP формата : Да
Параметр матрицы формата : Выборочная
Параметр GOP формата : Variable
Продолжительность : 17 м.
Вид битрейта : Переменный
Битрейт : 7944 Кбит/сек
Максимальный битрейт : 9800 Кбит/сек
Ширина : 720 пикселей
Высота : 480 пикселей
Соотношение сторон : 16:9
Частота кадров : 23,976 кадра/сек
Стандарт вещания : NTSC
Цветовое пространство : YUV
Субдискретизация насыщенности : 4:2:0
Битовая глубина : 8 бит
Тип развёртки : Прогрессивная
Порядок развёртки : 2:3 Pulldown
Метод сжатия : С потерями
Бит/(Пиксели*Кадры) : 0.959
Временной код первого кадра : 01:00:00:00
Оригинал временного кода : Group of pictures header
Размер потока : 980 Мбайт (96%)
Аудио
Идентификатор : 189 (0xBD)-128 (0x80)
Формат : AC-3
Формат/Информация : Audio Coding 3
Расширение режима : CM (complete main)
Параметр Endianness формата : Big
Режим смешивания : DVD-Video
Продолжительность : 17 м.
Вид битрейта : Постоянный
Битрейт : 192 Кбит/сек
Каналы : 1 канал
Расположение каналов : Front: C
Частота : 48,0 КГц
Битовая глубина : 16 бит
Метод сжатия : С потерями
Размер потока : 23,7 Мбайт (2%)
Текст #1
Идентификатор : 189 (0xBD)-32 (0x20)
Формат : RLE
Формат/Информация : Run-length encoding
Режим смешивания : DVD-Video
Продолжительность : 17 м.
Задержка видео : 5 с. 905 мс.
Текст #2
Идентификатор : 189 (0xBD)-33 (0x21)
Формат : RLE
Формат/Информация : Run-length encoding
Режим смешивания : DVD-Video
Продолжительность : 17 м.
Задержка видео : 5 с. 905 мс.

Скриншоты меню-Диск 1


Скриншоты фильма-Диск 1


Скриншоты доп. материалов-Диск 1

Скриншоты меню-Диск 2


Скриншоты доп. материалов-Диск 2



Полиграфия

[teatrix.ru].t7436.torrent 
Торрент: Зарегистрирован [ 2015-10-12 09:59 ] · 6FFA8DF3E5F7CD98FBD0284F313171C3A8BDFDF5

Скачать .torrent

Скачать

80 KB

Статус: проверено
Скачан: 0 раз
Размер: 14.94 GB
terms.php



Быстрый ответ

Имя:

      
Для отправки сообщений необходимо включить JavaScript
Показать сообщения:    

Текущее время: 08-Дек 03:13

Часовой пояс: UTC + 3


Вы можете начинать темы
Вы можете отвечать на сообщения
Вы не можете редактировать свои сообщения
Вы не можете удалять свои сообщения
Вы не можете голосовать в опросах
Вы не можете прикреплять файлы к сообщениям
Вы можете скачивать файлы