Трудно быть Богом (Алексей Герман) [2013, Россия, фантастика, драма, DVD9] R5 Original Rus


Статистика раздачи [Обновить пиров]
Размер:  6.84 GB   |    Зарегистрирован:  1 год 1 месяц   |    Скачан:  0 раз

Полного источника не было: Никогда

 
   
 
 
 

[Цитировать]

-Трудно быть Богом -Страна: Россия
Студия: Ленфильм, Министерство культуры Российской Федерации, Студия Север
Жанр: фантастика, драма
Год выпуска: 2013
Мировая премьера: 13 ноября 2013
Российская премьера: 27 февраля 2014, «Люксор»
Дата выхода DVD: 20 мая 2014, «Lizard Cinema Trade»
Дата выхода Blu-Ray: 20 мая 2014, «Lizard Cinema Trade»
Продолжительность: 02:50:07
Перевод: Оригинал [Лицензия]
Cубтитры: нет
Оригинальная аудиодорожка: русский-Режиссер: Алексей Герман-В ролях: Леонид Ярмольник, Юрий Цурило, Наталья Мотева, Александр Чутко, Евгений Герчаков, Валентин Голубенко, Пётр Меркурьев, Олег Ботин, Константин Быков, Юрий Думчев...-Описание: На планете, погружённой в глухое Средневековье, работают наблюдатели-земляне, которые пытаются бережно подправлять ход событий, не нарушая логическое развитие истории. Главный герой, дон Румата Эсторский, осознавая свою задачу сохранения нейтралитета, тем не менее, не выдерживает, когда в Арканаре (одном из городов планеты) захватывает власть «чёрное братство», свергнувшее господство «серых», столь же отвратительных, но не столь кровавых. Румата берётся за меч, чтобы покарать злодеев, и тем самым нарушает все правила и закономерности, вмешиваясь в чужой исторический процесс.-Бонусы: нет- -Релиз группы: -Качество: DVD9 R5
Формат: DVD-Video
Видео кодек: MPEG2
Аудио кодек: AC3
Видео: PAL 16:9 (720x576(0.469)) MPEG Video, 25,000 кадр/сек, 4858 Кбит/сек
Аудио: Russian (Dolby AC3, 6 ch) 448 Кбит/сек, 48,0 КГц--

DVDInfo

Title: Trudno.byt.Bogom.2013.DVD9
Size: 6.84 Gb ( 7 174 934,00 KBytes ) - DVD-9
Enabled regions: 1, 2, 3, 4, 5, 6, 7, 8
VTS_01 :
Play Length: 00:00:25+{00:00:25}+{00:00:25}
Video: PAL 4:3 (720x576) VBR
Audio:
Russian (Dolby AC3, 6 ch)
English (Dolby AC3, 6 ch)
English (Dolby AC3, 6 ch)
VTS_02 :
Play Length: 02:50:07
Video: PAL 16:9 (720x576) VBR, Auto Pan&Scan, Auto Letterboxed
Audio:
Russian (Dolby AC3, 6 ch)
* Menus Information *
VIDEO_TS Menu
Video:
PAL 16:9 (720x576) VBR
Auto Pan&Scan, Auto Letterboxed
English Language Unit :
Title Menu
VTS_01 Menu
Video:
PAL 16:9 (720x576) VBR
Auto Letterboxed
Audio:
Not specified (Dolby AC3, 2 ch)
English Language Unit :
Root Menu
Chapter (PTT) Menu
VTS_02 Menu
Video:
PAL 4:3 (720x576) VBR
English Language Unit :
Root Menu
Chapter (PTT) Menu

MediaInfo

Общее
Полное имя : D:\Новинки 2014\Trudno.byt.Bogom.2013.DVD9\VIDEO_TS\VTS_02_2.VOB
Формат : MPEG-PS
Размер файла : 1024 Мбайт
Продолжительность : 26 м.
Режим общего битрейта : Переменный
Общий поток : 5413 Кбит/сек
Видео
Идентификатор : 224 (0xE0)
Формат : MPEG Video
Версия формата : Version 2
Профиль формата : Main@Main
Параметр BVOP формата : Да
Параметр матрицы формата : Выборочная
Параметр GOP формата : M=3, N=15
Продолжительность : 26 м.
Вид битрейта : Переменный
Битрейт : 4858 Кбит/сек
Максимальный битрейт : 8500 Кбит/сек
Ширина : 720 пикселей
Высота : 576 пикселей
Соотношение сторон : 16:9
Частота кадров : 25,000 кадров/сек
Стандарт вещания : PAL
Цветовое пространство : YUV
Субдискретизация насыщенности : 4:2:0
Битовая глубина : 8 бит
Тип развёртки : Прогрессивная
Метод сжатия : С потерями
Бит/(Пиксели*Кадры) : 0.469
Временной код первого кадра : 00:26:27:20
Оригинал временного кода : Group of pictures header
Размер потока : 919 Мбайт (90%)
Аудио
Идентификатор : 189 (0xBD)-128 (0x80)
Формат : AC-3
Формат/Информация : Audio Coding 3
Расширение режима : CM (complete main)
Параметр Endianness формата : Big
Режим смешивания : DVD-Video
Продолжительность : 26 м.
Вид битрейта : Постоянный
Битрейт : 448 Кбит/сек
Каналы : 6 каналов
Расположение каналов : Front: L C R, Side: L R, LFE
Частота : 48,0 КГц
Битовая глубина : 16 бит
Метод сжатия : С потерями
Задержка видео : -840 мс.
Размер потока : 84,7 Мбайт (8%)

Скриншоты меню

Скриншоты фильма

[teatrix.ru].t7437.torrent 
Торрент: Зарегистрирован [ 2015-10-12 09:59 ] · 1D8CAEDF2FAAF2202EB41F06E65A1E0A61EA5CE9

Скачать .torrent

Скачать

18 KB

Статус: проверено
Скачан: 0 раз
Размер: 6.84 GB
terms.php



Быстрый ответ

Имя:

      
Для отправки сообщений необходимо включить JavaScript
Показать сообщения:    

Текущее время: 03-Дек 20:38

Часовой пояс: UTC + 3


Вы можете начинать темы
Вы можете отвечать на сообщения
Вы не можете редактировать свои сообщения
Вы не можете удалять свои сообщения
Вы не можете голосовать в опросах
Вы не можете прикреплять файлы к сообщениям
Вы можете скачивать файлы