У истоков жизни / На пороге жизни / Nära (Nara) livet / So Close to Life / Brink of Life (Ингмар Бергман / Ingmar Bergman) [1958, Швеция, драма, DVD9 (Custom)] [4:3 PAL R2] Artificial Eye от 28 Мая 2012, VO (Культура) + Sub Eng + Original Swe


Статистика раздачи [Обновить пиров]
Размер:  7.42 GB   |    Зарегистрирован:  1 год 1 месяц   |    Скачан:  0 раз

Полного источника не было: Никогда

 
   
 
 
 

[Цитировать]

У истоков жизни / На пороге жизни / Nära (Nara) livet / So Close to Life / Brink of Life
4:3 PAL R2 Artificial Eye от 28 Мая 2012
Страна: Швеция
Студия: Inter-American Productions, Jerome Balsam Films, Nordisk Tonefilm
Жанр: драма
Год выпуска: 1958
Продолжительность: 01:18:25
Перевод: Студийный (одноголосый закадровый) - Киностудия им. Горького по заказу ГТРК «Культура», 2000
Cубтитры: английские
Оригинальная аудиодорожка: шведский
Режиссер: Ингмар Бергман / Ingmar Bergman
В ролях: Ева Дальбек, Ингрид Тулин, Биби Андерссон, Барбро Хиорт аф ОрнЭс, Эрланд Юзефсон, Макс фон Сюдов, Гуннар Шёберг, Анн-Мари Гюлленспец, Инга Ландгре, Кристина Адольфсон ...
Описание: Киноновелла, небогатая событиями, но насыщенная неброским внутренним драматизмом, действие которой происходит в родильном доме. Лента рассказывает о трех женщинах, две из которых очень хотят родить ребенка, третья — напротив, желала бы от него избавиться, да поздно. Желания каждой из героинь оказываются невыполнимы…
Доп. информация: Диск собран из Nara livet_(So Close to Life)_(Brink of Life)_1958_DVD9 R2 найденного в сети. (Который на постере)
Бонусы: THE MEN AND BERGMAN (DOCUMENTARY) -- 52:09
Меню: Анимированное, озвученное, на английском.Меню неотредактировано, переключение звуковых дорожек с пульта.--Спасибо за рус. одноголосый Last Boy Scout-- --Nara livet_(So Close to Life)_(Brink of Life)_1958_DVD9 R2_Sample_.rar-
-

Точка перехода на второй слой


-
-

...из книги «3500 кинорецензий»


-
-

Награды


-
-Тип релиза: DVD9 (Custom)
Контейнер: DVD-Video
Видео: PAL 4:3 (720x576) VBR, ~ 8235.15 kbps avg
Аудио 1: Svenska, AC3, 2/0 (L,R) ch, 224 kbps, Delay 0 mSec
Аудио 2: Russian, AC3, 2/0 (L,R) ch, 192 kbps, Delay 0 mSec
Формат субтитров: prerendered (DVD/IDX+SUB)

MediaInfo

General
Complete name : Nara livet_(So Close to Life)_(Brink of Life)_1958_DVD9 R2\VIDEO_TS\VTS_02_2.VOB
Format : MPEG-PS
File size : 1 024 MiB
Duration : 17mn 54s
Overall bit rate mode : Variable
Overall bit rate : 7 996 Kbps
Video
ID : 224 (0xE0)
Format : MPEG Video
Format version : Version 2
Format profile : Main@Main
Format settings, BVOP : Yes
Format settings, Matrix : Custom
Format settings, GOP : M=3, N=12
Duration : 17mn 54s
Bit rate mode : Variable
Bit rate : 7 420 Kbps
Maximum bit rate : 8 500 Kbps
Width : 720 pixels
Height : 576 pixels
Display aspect ratio : 4:3
Frame rate : 25.000 fps
Standard : PAL
Color space : YUV
Chroma subsampling : 4:2:0
Bit depth : 8 bits
Scan type : Interlaced
Scan order : Top Field First
Compression mode : Lossy
Bits/(Pixel*Frame) : 0.716
Time code of first frame : 10:17:20:11
Time code source : Group of pictures header
Stream size : 950 MiB (93%)
Audio #1
ID : 189 (0xBD)-128 (0x80)
Format : AC-3
Format/Info : Audio Coding 3
Mode extension : CM (complete main)
Format settings, Endianness : Big
Muxing mode : DVD-Video
Duration : 17mn 54s
Bit rate mode : Constant
Bit rate : 224 Kbps
Channel(s) : 2 channels
Channel positions : Front: L R
Sampling rate : 48.0 KHz
Bit depth : 16 bits
Compression mode : Lossy
Delay relative to video : -368ms
Stream size : 28.7 MiB (3%)
Audio #2
ID : 189 (0xBD)-129 (0x81)
Format : AC-3
Format/Info : Audio Coding 3
Mode extension : CM (complete main)
Format settings, Endianness : Big
Muxing mode : DVD-Video
Duration : 17mn 54s
Bit rate mode : Constant
Bit rate : 192 Kbps
Channel(s) : 2 channels
Channel positions : Front: L R
Sampling rate : 48.0 KHz
Bit depth : 16 bits
Compression mode : Lossy
Delay relative to video : -272ms
Stream size : 24.6 MiB (2%)
Text
ID : 189 (0xBD)-32 (0x20)
Format : RLE
Format/Info : Run-length encoding
Muxing mode : DVD-Video
Duration : 17mn 50s
Delay relative to video : 1s 640ms
Menu

DVD Info

Title: Nara livet_(So Close to Life)_(Brink of Life)_1958_DVD9 R2
Size: 7.42 Gb ( 7 779 636,00 KBytes ) - DVD-9
Enabled regions: 1, 2, 3, 4, 5, 6, 7, 8
VTS_01 :
Play Length: 00:00:14
Video: PAL 16:9 (720x576) VBR, Auto Letterboxed
Audio:
English (Dolby AC3, 2 ch)
VTS_02 :
Play Length: 01:18:25+00:00:14
Video: PAL 4:3 (720x576) VBR
Audio:
Svenska, AC3, 2/0 (L,R) ch, 224 kbps, Delay 0 mSec
Russian, AC3, 2/0 (L,R) ch, 192 kbps, Delay 0 mSec
Subtitles:
English
VTS_03 :
Play Length: 00:52:09
Video: PAL 16:9 (720x576) VBR, Auto Letterboxed
Audio:
Svenska (Dolby AC3, 2 ch)
Subtitles:
English
VTS_04 :
Play Length: 00:00:17
Video: PAL 16:9 (720x576) VBR, Auto Letterboxed
Audio:
Svenska (Dolby AC3, 2 ch)
* Menus Information *
VIDEO_TS Menu
Video:
PAL 16:9 (720x576) VBR
Auto Letterboxed
Audio:
Not specified (Dolby AC3, 2 ch)
English Language Unit :
Title Menu
VTS_01 Menu
Video:
NTSC 4:3 (720x480) VBR
Auto Pan&Scan, Auto Letterboxed
English Language Unit :
Root Menu
VTS_02 Menu
Video:
PAL 16:9 (720x576) VBR
Auto Letterboxed
Audio:
Not specified (Dolby AC3, 2 ch)
English Language Unit :
Root Menu
VTS_03 Menu
Video:
NTSC 4:3 (720x480) VBR
Auto Pan&Scan, Auto Letterboxed
English Language Unit :
Root Menu
VTS_04 Menu
Video:
NTSC 4:3 (720x480) VBR
Auto Pan&Scan, Auto Letterboxed
English Language Unit :
Root Menu

П. О.

PgcDemux 1.2.0.5 - разделение компонентов диска на файлы;
BeSweetv1.5b31+BeLight 0.21 - AC3 -> Wav
Sound Forge pro 10 - Wav -> AC3
MuxMan DVD authoring Professional 1.4.4 - мультиплексирование и авторинг DVD;
DVDRemake Pro 3.6.4 - реавторинг DVD;
DVD Shrink 3.2 - Сэмпл
VLC - Скриншоты-
-
-

-
-
-BeSweet v1.5b31 by DSPguru.
--------------------------
Using azid.dll v1.9 (b922) by Midas (midas@egon.gyaloglo.hu).
Logging start : 05/10/14 , 20:08:29.
BeSweet.exe -core( -input C:\Temp\NARA\AudioFile_80.ac3 -output C:\Temp\NARA\AudioFile_80.wav -2ch -logfile C:\Temp\NARA\AudioFile_80.log ) -azid( -s mono -c normal -L -3db )
[00:00:00:000] +------- BeSweet -----
[00:00:00:000] | Input : C:\Temp\NARA\AudioFile_80.ac3
[00:00:00:000] | Output: C:\Temp\NARA\AudioFile_80.wav
[00:00:00:000] | Floating-Point Process: No
[00:00:00:000] +-------- AZID -------
[00:00:00:000] | Input Channels Mode: 2/0, Bitrate: 224kbps
[00:00:00:000] | Output Stereo mode: Dolby surround 2 compatible
[00:00:00:000] | Total Gain: 0.000dB, Compression: Normal
[00:00:00:000] | LFE levels: To LR -3.0dB, To LFE 0.0dB
[00:00:00:000] | Center mix level: BSI
[00:00:00:000] | Surround mix level: BSI
[00:00:00:000] | Dialog normalization: No
[00:00:00:000] | Rear channels filtering: No
[00:00:00:000] | Source Sample-Rate: 48.0KHz
[00:00:00:000] +---------------------
[01:18:25:632] Conversion Completed !
[01:18:25:632] Actual Avg. Bitrate : 623kbps
[00:00:53:000]
[teatrix.ru].t7443.torrent 
Торрент: Зарегистрирован [ 2015-10-12 09:59 ] · 37E1251193EF9855043B1F2798C0A7070B7E3B07

Скачать .torrent

Скачать

39 KB

Статус: проверено
Скачан: 0 раз
Размер: 7.42 GB
terms.php



Быстрый ответ

Имя:

      
Для отправки сообщений необходимо включить JavaScript
Показать сообщения:    

Текущее время: 09-Дек 22:29

Часовой пояс: UTC + 3


Вы можете начинать темы
Вы можете отвечать на сообщения
Вы не можете редактировать свои сообщения
Вы не можете удалять свои сообщения
Вы не можете голосовать в опросах
Вы не можете прикреплять файлы к сообщениям
Вы можете скачивать файлы