Жанна Дильман, набережная дю Коммерс, 23, Брюссель, 1080 / Jeanne Dielman, 23 Quai du Commerce, 1080 Bruxelles (Шанталь Акерман / Chantal Akerman)[1975, Бельгия, Франция, Драма, DVD9 (Custom)] + Sub Eng, Rus + Original Fra / Criterion Collection#484


Статистика раздачи [Обновить пиров]
Размер:  15.08 GB   |    Зарегистрирован:  1 год 1 месяц   |    Скачан:  1 раз

Полного источника не было: 1 месяц 24 дня

 
   
 
 
 

[Цитировать]

Жанна Дильман, набережная дю Коммерс, 23, Брюссель, 1080 / Jeanne Dielman, 23 Quai du Commerce, 1080 Bruxelles / Criterion Collection#484 Страна:Бельгия, Франция
Студия:Ministere de la Culture Francaise de Belgique, Paradise Films, Unite Trois
Жанр:Драма, Артхаус
Год выпуска:1975
Продолжительность:03:21:41
Производитель: The Criterion Collection#484
Перевод :Субтитры NosoglotkaCубтитры:Английские, РусскиеОригинальная аудиодорожка:Французский
Премьера (мир):14.05.1975
Режиссер:Шанталь Акерман / Chantal Akerman
Сценарий:Шанталь Акерман
Продюсер:Ги Каваньяк, Ален Даан, Лилиан де КермадекОператор:Бабетт МангольтКомпозитор:Ален МаршальХудожник:Филипп ГраффМонтаж:Патриция Канино
В ролях:Дэльфин Сейриг, Жан Декорт, Анри Сторк, Жак Дониоль-Валькроз, Ив Бикаль, Шанталь Акерман
Описание:Жанна Дильман живёт в со своим довольно взрослым сыном-школьником. Род её занятий — проституция на дому и присмотр за детьми.

Доп. информация:Софт:
PGCDemux (извлечение).
DVD-lab PRO 2, Subtitle Workshop (субтитры).
MuxMan (сборка). DvdReMakePro (финал).Исходник и русские субтитры Nosoglotka найдены в сети .Реавторинг Нордер.Огромное Спасибо Всем, без чьей помощи этот релиз не состоялся бы!
Бонусы: (Без перевода):Диск 2:* Restored digital transfer, supervised and approved by director Chantal Akerman
* Autour de “Jeanne Dielman,” a 69-minute documentary—shot by actor Sami Frey and edited by Agnes Ravez and Akerman—made during the filming of Jeanne Dielman
* New interviews with Akerman and cinematographer Babette Mangolte
* Excerpt from “Chantal Akerman par Chantal Akerman,” a 1997 episode of the French television program Cinema de notre temps
* Interview with Akerman’s mother, Natalia
* Archival television interview excerpt featuring Akerman and star Delphine Seyrig
* Saute ma ville (1968), Akerman’s first film, with an introduction by the director
* New and improved English subtitle translation
Меню:Меню:Английский, статичное, неозвученное
Сэмпл Диск 1:http://multi-up.com/966720Сэмпл Диск 2:http://multi-up.com/966723Тип релиза:2хDVD9 (Custom)
Контейнер:DVD-Video
Видео:NTSC 16:9 (720x480) VBR, Auto Letterboxed, 5120 Кбит/сек, 29,970 кадров/сек
Аудио :Французский: AC3, 1 ch, 48.0 KHz, 192 Кбит/сек (Оригинал)
Формат субтитров: prerendered (DVD/IDX+SUB)

Dvd Info- Диск 1

Title: диск 1
Size: 7.59 Gb ( 7 957 318,00 KBytes ) - DVD-9
Enabled regions: 1, 2, 3, 4, 5, 6, 7, 8
VTS_01 :
Play Length: 00:00:03
Video: NTSC 16:9 (720x480) VBR, Auto Letterboxed
VTS_02 :
Play Length: 03:21:41
Video: NTSC 16:9 (720x480) VBR, Auto Letterboxed
Audio:
Francais, AC3, 1/0 (C) ch, 192 kbps, Delay 0 mSec
Subtitles:
English
Russian
VTS_03 :
Play Length: 00:00:20
Video: NTSC 16:9 (720x480) VBR, Auto Pan&Scan
VTS_04 :
Play Length: 00:00:00
Video: NTSC 4:3 (720x480) VBR

Dvd Info- Диск 2

Title: диск 2
Size: 7.49 Gb ( 7 858 724,00 KBytes ) - DVD-9
Enabled regions: 1, 2, 3, 4, 5, 6, 7, 8
VTS_01 :
Play Length: 00:00:03
Video: NTSC 16:9 (720x480) VBR, Auto Letterboxed
VTS_02 :
Play Length: 00:20:20
Video: NTSC 16:9 (720x480) VBR, Auto Letterboxed
Audio:
Francais, AC3, 1/0 (C) ch, 192 kbps, Delay 0 mSec
Subtitles:
English
VTS_03 :
Play Length: 00:13:03
Video: NTSC 4:3 (720x480) VBR
Audio:
Francais, AC3, 1/0 (C) ch, 192 kbps, Delay 0 mSec
Subtitles:
English
VTS_04 :
Play Length: 00:17:04
Video: NTSC 4:3 (720x480) VBR
Audio:
Francais, AC3, 1/0 (C) ch, 192 kbps, Delay 0 mSec
Subtitles:
English
VTS_05 :
Play Length: 00:06:52
Video: NTSC 4:3 (720x480) VBR
Audio:
Francais, AC3, 1/0 (C) ch, 192 kbps, Delay 0 mSec
Subtitles:
English
VTS_06 :
Play Length: 00:28:13
Video: NTSC 16:9 (720x480) VBR, Auto Letterboxed
Audio:
Francais, AC3, 1/0 (C) ch, 192 kbps, Delay 0 mSec
Subtitles:
English
VTS_07 :
Play Length: 00:01:21
Video: NTSC 16:9 (720x480) VBR, Auto Letterboxed
Audio:
Francais, AC3, 1/0 (C) ch, 192 kbps, Delay 0 mSec
Subtitles:
English
VTS_08 :
Play Length: 00:22:41
Video: NTSC 16:9 (720x480) VBR, Auto Letterboxed
Audio:
English, AC3, 1/0 (C) ch, 192 kbps, Delay 0 mSec
Subtitles:
English
VTS_09 :
Play Length: 01:08:45
Video: NTSC 4:3 (720x480) VBR
Audio:
Francais, AC3, 1/0 (C) ch, 192 kbps, Delay 0 mSec
Subtitles:
English
VTS_10 :
Play Length: 00:00:00
Video: NTSC 4:3 (720x480) VBR

MediaInfo- Диск 1

Общее
Полное имя: F:\Jeanne Dielman, 23, quai du Commerce, 1080 Bruxelles 2хDVD-9_Custom_Criterion_#484\диск 1\VIDEO_TS\VTS_02_1.VOB
Формат : MPEG-PS
Размер файла : 1024 Мбайт
Продолжительность : 26 м.
Режим общего битрейта : Переменный
Общий поток : 5420 Кбит/сек
Видео
Идентификатор : 224 (0xE0)
Формат : MPEG Video
Версия формата : Version 2
Профиль формата : Main@Main
Параметр BVOP формата : Да
Параметр матрицы формата : Выборочная
Параметр GOP формата : M=3, N=12
Продолжительность : 26 м.
Вид битрейта : Переменный
Битрейт : 5120 Кбит/сек
Максимальный битрейт : 9588 Кбит/сек
Ширина : 720 пикселей
Высота : 480 пикселей
Соотношение сторон : 16:9
Частота кадров : 29,970 кадров/сек
Стандарт вещания : NTSC
Цветовое пространство : YUV
Субдискретизация насыщенности : 4:2:0
Битовая глубина : 8 бит
Метод сжатия : С потерями
Бит/(Пиксели*Кадры) : 0.494
Временной код первого кадра : 00:59:39:24
Оригинал временного кода : Group of pictures header
Размер потока : 967 Мбайт (94%)
Аудио
Идентификатор : 189 (0xBD)-128 (0x80)
Формат : AC-3
Формат/Информация : Audio Coding 3
Расширение режима : CM (complete main)
Параметр Endianness формата : Big
Режим смешивания : DVD-Video
Продолжительность : 26 м.
Вид битрейта : Постоянный
Битрейт : 192 Кбит/сек
Каналы : 1 канал
Расположение каналов : Front: C
Частота : 48,0 КГц
Битовая глубина : 16 бит
Метод сжатия : С потерями
Размер потока : 36,3 Мбайт (4%)
Текст #1
Идентификатор : 189 (0xBD)-32 (0x20)
Формат : RLE
Формат/Информация : Run-length encoding
Режим смешивания : DVD-Video
Текст #2
Идентификатор : 189 (0xBD)-33 (0x21)
Формат : RLE
Формат/Информация : Run-length encoding
Режим смешивания : DVD-Video
Текст #3
Идентификатор : 189 (0xBD)-34 (0x22)
Формат : RLE
Формат/Информация : Run-length encoding
Режим смешивания : DVD-Video

MediaInfo- Диск 2

Общее
Полное имя: F:\Jeanne Dielman, 23, quai du Commerce, 1080 Bruxelles 2хDVD 9_Custom_Criterion_#484\диск 2\VIDEO_TS\VTS_02_1.VOB
Формат : MPEG-PS
Размер файла : 900 Мбайт
Продолжительность : 20 м.
Режим общего битрейта : Переменный
Общий поток : 6182 Кбит/сек
Видео
Идентификатор : 224 (0xE0)
Формат : MPEG Video
Версия формата : Version 2
Профиль формата : Main@Main
Параметр BVOP формата : Да
Параметр матрицы формата : Выборочная
Параметр GOP формата : M=3, N=15
Продолжительность : 20 м.
Вид битрейта : Переменный
Битрейт : 5867 Кбит/сек
Максимальный битрейт : 9600 Кбит/сек
Ширина : 720 пикселей
Высота : 480 пикселей
Соотношение сторон : 16:9
Частота кадров : 29,970 кадров/сек
Стандарт вещания : NTSC
Цветовое пространство : YUV
Субдискретизация насыщенности : 4:2:0
Битовая глубина : 8 бит
Тип развёртки : Чересстрочная
Порядок развёртки : Верхнее поле первое
Метод сжатия : С потерями
Бит/(Пиксели*Кадры) : 0.566
Временной код первого кадра : 01:00:02:15
Оригинал временного кода : Group of pictures header
Размер потока : 854 Мбайт (95%)
Аудио
Идентификатор : 189 (0xBD)-128 (0x80)
Формат : AC-3
Формат/Информация : Audio Coding 3
Расширение режима : CM (complete main)
Параметр Endianness формата : Big
Режим смешивания : DVD-Video
Продолжительность : 20 м.
Вид битрейта : Постоянный
Битрейт : 192 Кбит/сек
Каналы : 1 канал
Расположение каналов : Front: C
Частота : 48,0 КГц
Битовая глубина : 16 бит
Метод сжатия : С потерями
Размер потока : 27,9 Мбайт (3%)
Текст #1
Идентификатор : 189 (0xBD)-32 (0x20)
Формат : RLE
Формат/Информация : Run-length encoding
Режим смешивания : DVD-Video
Задержка видео : 767 мс.
Текст #2
Идентификатор : 189 (0xBD)-33 (0x21)
Формат : RLE
Формат/Информация : Run-length encoding
Режим смешивания : DVD-Video
Задержка видео : 767 мс.

Скриншоты меню-Диск 1

Скриншоты фильма-Диск 1

Скриншоты меню-Диск 2

Скриншоты доп. материалов-Диск 2

Полиграфия

[teatrix.ru].t7472.torrent 
Торрент: Зарегистрирован [ 2015-10-12 09:59 ] · 2DBAC63DAFD733BDB5D1246CE4B355166AE31E72

Скачать .torrent

Скачать

80 KB

Статус: проверено
Скачан: 1 раз
Размер: 15.08 GB
terms.php



Быстрый ответ

Имя:

      
Для отправки сообщений необходимо включить JavaScript
Показать сообщения:    

Текущее время: 05-Дек 11:29

Часовой пояс: UTC + 3


Вы можете начинать темы
Вы можете отвечать на сообщения
Вы не можете редактировать свои сообщения
Вы не можете удалять свои сообщения
Вы не можете голосовать в опросах
Вы не можете прикреплять файлы к сообщениям
Вы можете скачивать файлы