За нашу любовь / За наших любимых / Нашим любимым / Выпьем за любовь / À (A) nos amours / To Our Loves (Морис Пиала / Maurice Pialat) [1983, Франция, драма, DVD9 (Custom)] [16:9 NTSC R1], Criterion#337, VO (kinoman88) + Sub Rus Eng + Orig Fre


Статистика раздачи [Обновить пиров]
Размер:  6.85 GB   |    Зарегистрирован:  1 год 1 месяц   |    Скачан:  0 раз

Полного источника не было: Никогда

 
   
 
 
 

[Цитировать]

За нашу любовь / За наших любимых / Нашим любимым / Выпьем за любовь
À (A) nos amours / To Our Loves
16:9 NTSC R1 Criterion#337
Страна: Франция
Студия: Les Films du Livradois, Gaumont, France 3 (FR 3)
Жанр: драма, мелодрама
Год выпуска: 1983
Продолжительность: 01:39:23
Перевод: Одноголосый закадровый - kinoman88
Cубтитры: русские(leburs и seandy), английские
Оригинальная аудиодорожка: французский
Режиссер: Морис Пиала / Maurice Pialat
В ролях: Сандрин Боннэр, Морис Пиала, Кристоф Одан, Доминик Беснеар, Сирил Коллар, Жак Фьески, Валери Шлюмберже, Эвелин Кер, Пьер Новион, Цилька Теодору.
Описание: 15-летняя Сюзанн попадает в безнадежную ситуацию: в нее влюбляются двое, но сама она может быть счастлива только с третьим — парнем по имени Люк. Она спит со всеми, кто ею заинтересуется, кроме него. Поведение Сюзанн создает кучу проблем дома. Отец хочет уехать и сдать бразды правления в семье сыну, мать начинает сходить с ума.
Доп. информация: Диск собран из A nos amours_1983_DVD9 R1_Criterion#337 найденного в сети. (Который на постере)--Бонусы: Трейлер.
Меню: Анимированное, озвученное, на английском.Меню неотредактировано, переключение звуковых дорожек с пульта.
Фильм автоматический стартует с рус. звук. дорожкой.
-- -
-

Точка перехода на второй слой


-
-A nos amours_1983_DVD9 R1_Criterion#337_Sample_.rar-
-

Награды


-
-К сожалению второй, бонусный диск этого 2-х дискового издания от Criterion найти не удалось.--Тип релиза: DVD9 (Custom)
Контейнер: DVD-Video
Видео: NTSC 16:9 (720x480) VBR Auto Letterboxed, ~ 9736.72 kbps avg
Аудио 1: Francais, AC3, 1/0 (C) ch, 192 kbps, Delay 0 mSec
Аудио 2: Russian, AC3, 1/0 (C) ch, 96 kbps, Delay 0 mSec - {Из за ограничения по битрейту пришлось cделать в 1ch - 96 kbps}
Формат субтитров: prerendered (DVD/IDX+SUB)

MediaInfo

General
Complete name : A nos amours_1983_DVD9 R1_Criterion#337\VIDEO_TS\VTS_01_2.VOB
Format : MPEG-PS
File size : 1 024 MiB
Duration : 15mn 6s
Overall bit rate mode : Variable
Overall bit rate : 9 472 Kbps
Video
ID : 224 (0xE0)
Format : MPEG Video
Format version : Version 2
Format profile : Main@Main
Format settings, BVOP : Yes
Format settings, Matrix : Custom
Format settings, GOP : M=3, N=12
Duration : 15mn 6s
Bit rate mode : Variable
Bit rate : 9 000 Kbps
Width : 720 pixels
Height : 480 pixels
Display aspect ratio : 16:9
Frame rate : 23.976 fps
Standard : NTSC
Color space : YUV
Chroma subsampling : 4:2:0
Bit depth : 8 bits
Scan type : Progressive
Scan order : 2:3 Pulldown
Compression mode : Lossy
Bits/(Pixel*Frame) : 1.086
Time code of first frame : 10:14:39:15
Time code source : Group of pictures header
Stream size : 972 MiB (95%)
Audio #1
ID : 189 (0xBD)-128 (0x80)
Format : AC-3
Format/Info : Audio Coding 3
Mode extension : CM (complete main)
Format settings, Endianness : Big
Muxing mode : DVD-Video
Duration : 15mn 6s
Bit rate mode : Constant
Bit rate : 192 Kbps
Channel(s) : 1 channel
Channel positions : Front: C
Sampling rate : 48.0 KHz
Bit depth : 16 bits
Compression mode : Lossy
Delay relative to video : -188ms
Stream size : 20.8 MiB (2%)
Audio #2
ID : 189 (0xBD)-129 (0x81)
Format : AC-3
Format/Info : Audio Coding 3
Mode extension : CM (complete main)
Format settings, Endianness : Big
Muxing mode : DVD-Video
Duration : 15mn 6s
Bit rate mode : Constant
Bit rate : 96.0 Kbps
Channel(s) : 1 channel
Channel positions : Front: C
Sampling rate : 48.0 KHz
Bit depth : 16 bits
Compression mode : Lossy
Delay relative to video : 4ms
Stream size : 10.4 MiB (1%)
Text #1
ID : 189 (0xBD)-32 (0x20)
Format : RLE
Format/Info : Run-length encoding
Muxing mode : DVD-Video
Text #2
ID : 189 (0xBD)-33 (0x21)
Format : RLE
Format/Info : Run-length encoding
Muxing mode : DVD-Video
Text #3
ID : 189 (0xBD)-34 (0x22)
Format : RLE
Format/Info : Run-length encoding
Muxing mode : DVD-Video
Menu

DVD Info

Title: A nos amours_1983_DVD9 R1_Criterion#337
Size: 6.85 Gb ( 7 182 698,00 KBytes ) - DVD-9
Enabled regions: 1, 2, 3, 4, 5, 6, 7, 8
VTS_01 :
Play Length: 01:39:23
Video: NTSC 16:9 (720x480) VBR, Auto Letterboxed
Audio:
Francais, AC3, 1/0 (C) ch, 192 kbps, Delay 0 mSec
Russian, AC3, 1/0 (C) ch, 96 kbps, Delay 0 mSec
Subtitles:
English
Russian
VTS_02 :
Play Length: 00:01:25
Video: NTSC 4:3 (720x480) VBR
Audio:
Francais (Dolby AC3, 1 ch)
Subtitles:
English
VTS_03 :
Play Length: 00:00:20
Video: NTSC 4:3 (720x480) VBR
Audio:
Francais (Dolby AC3, 1 ch)
* Menus Information *
VIDEO_TS Menu
Video:
NTSC 4:3 (720x480) VBR
Auto Pan&Scan, Auto Letterboxed
English Language Unit :
Title Menu
VTS_01 Menu
Video:
NTSC 4:3 (720x480) VBR
Audio:
Not specified (Dolby AC3, 1 ch)
English Language Unit :
Root Menu
VTS_02 Menu
Video:
NTSC 4:3 (720x480) VBR
English Language Unit :
Root Menu
VTS_03 Menu
Video:
NTSC 4:3 (720x480) VBR
English Language Unit :
Root Menu

П. О.

PgcDemux 1.2.0.5 - разделение компонентов диска на файлы;
BeSweetv1.5b31+BeLight 0.21 - AC3, mp3 -> Wav
Sonic Foundry Soft Encode 1.0.19 PORTABLE - Wav -> AC3 (1ch)
MaestroSBT-Unicode-2.6.2.1 - Создание субтитров
DVDSubEdit -- Version 1.52 - Правка (цветовых схем) субтитров
MuxMan DVD authoring Professional 1.4.4 - мультиплексирование и авторинг DVD;
DVDRemake Pro 3.6.4 - реавторинг DVD;
DVD Shrink 3.2 - Сэмпл
VLC - Скриншоты-
-
-

-
-
-BeSweet v1.5b31 by DSPguru.
--------------------------
Using azid.dll v1.9 (b922) by Midas (midas@egon.gyaloglo.hu).
Logging start : 04/11/14 , 12:02:17.
BeSweet.exe -core( -input C:\Temp\Anos\AudioFile_80.ac3 -output C:\Temp\Anos\AudioFile_80.wav -2ch -logfile C:\Temp\Anos\AudioFile_80.log ) -azid( -s mono -c normal -L -3db )
[00:00:00:000] +------- BeSweet -----
[00:00:00:000] | Input : C:\Temp\Anos\AudioFile_80.ac3
[00:00:00:000] | Output: C:\Temp\Anos\AudioFile_80.wav
[00:00:00:000] | Floating-Point Process: No
[00:00:00:000] +-------- AZID -------
[00:00:00:000] | Input Channels Mode: 1/0, Bitrate: 192kbps
[00:00:00:000] | Output Stereo mode: Dolby surround 2 compatible
[00:00:00:000] | Total Gain: 0.000dB, Compression: Normal
[00:00:00:000] | LFE levels: To LR -3.0dB, To LFE 0.0dB
[00:00:00:000] | Center mix level: BSI
[00:00:00:000] | Surround mix level: BSI
[00:00:00:000] | Dialog normalization: No
[00:00:00:000] | Rear channels filtering: No
[00:00:00:000] | Source Sample-Rate: 48.0KHz
[00:00:00:000] +---------------------
[01:39:29:376] Conversion Completed !
[01:39:29:376] Actual Avg. Bitrate : 96kbps
[00:01:02:000]
[teatrix.ru].t7474.torrent 
Торрент: Зарегистрирован [ 2015-10-12 09:59 ] · D0983F23EEA3C6B546D3830EF5E568136AF22892

Скачать .torrent

Скачать

36 KB

Статус: проверено
Скачан: 0 раз
Размер: 6.85 GB
terms.php



Быстрый ответ

Имя:

      
Для отправки сообщений необходимо включить JavaScript
Показать сообщения:    

Текущее время: 05-Дек 05:28

Часовой пояс: UTC + 3


Вы можете начинать темы
Вы можете отвечать на сообщения
Вы не можете редактировать свои сообщения
Вы не можете удалять свои сообщения
Вы не можете голосовать в опросах
Вы не можете прикреплять файлы к сообщениям
Вы можете скачивать файлы