Нож / Het mes / The Knife (Фонс Радемакерс / Fons Rademakers) [1961, Нидерланды, драма, DVD5 (Custom)] [16:9 PAL R2 Издание A-Film от 02 Окт. 2003] VO + Sub Rus (Андрей Капитонов) + Sub (Eng Fra Ger Dut) + Original Dut


Статистика раздачи [Обновить пиров]
Размер:  3.6 GB   |    Зарегистрирован:  1 год 1 месяц   |    Скачан:  0 раз

Полного источника не было: Никогда

 
   
 
 
 

[Цитировать]

Нож / Het mes / The Knife
16:9 PAL R2 Издание A-Film от 02 Окт. 2003
Страна: Нидерланды
Студия: NFM
Жанр: драма
Год выпуска: 1961
Продолжительность: 01:25:13
Перевод: Одноголосый закадровый
Cубтитры: русские(Андрей Капитонов)английские, Французские и др.
Оригинальная аудиодорожка: нидерландский
Режиссер: Фонс Радемакерс / Fons Rademakers
В ролях: Reitze van der Linden, Marie-Louise Videc, Эллен Фогель, Пауль Каммерманс, Хетти Бек, Эллен Ван Стекеленбург, Миа Госсен, Хус Хермус, Cor Witschge, Пит ван Дер Мюлен
Описание: На юного Томаса обрушивается взрослый мир. В тринадцать лет многое ещё представляется странным, пугающим и даже омерзительным. У матери Томаса роман с Оскаром, который был другом его покойного отца, и это бесит юношу. Обида и ревность смешиваются с желанием повзрослеть, стать сильным хладнокровным мужчиной. И тогда Томас ворует на выставке нож.
Доп. информация: Диск собран из Het mes_1961_DVD5 R2 найденного в сети. (Который на постере)
Бонусы:
- Trailer
- Filmographies
- Photo Gallery
- Publicity Artwork
- Awards
- Promotional Trailer
Меню: Анимированное, озвученное, на английском.Меню не редактировалось, переключение звуковых дорожек и субтитров с пульта.-- -

Награды


-
-Het mes_1961_DVD5 R2_Sample_.rar--Тип релиза: DVD5 (Custom)
Контейнер: DVD-Video
Видео: PAL 16:9 (720x576) VBR Auto Letterboxed, ~ 5383.65 kbps avg
Аудио 1: Nederlands, AC3, 3/2 (L,C,R,SL,SR)+LFE ch, 448 kbps, Delay 0 mSec
Аудио 2: Nederlands, AC3, 2/0 (L,R) ch, 224 kbps, Delay 0 mSec
Аудио 3: Russian, AC3, 2/0 (L,R) ch, 192 kbps, Delay 0 mSec
Формат субтитров: prerendered (DVD/IDX+SUB)

MediaInfo

General
Complete name : Het mes_1961_DVD5 R2\VIDEO_TS\VTS_07_2.VOB
Format : MPEG-PS
File size : 1 024 MiB
Duration : 26mn 27s
Overall bit rate mode : Variable
Overall bit rate : 5 411 Kbps
Video
ID : 224 (0xE0)
Format : MPEG Video
Format version : Version 2
Format profile : Main@Main
Format settings, BVOP : Yes
Format settings, Matrix : Custom
Format settings, GOP : M=3, N=12
Duration : 26mn 27s
Bit rate mode : Variable
Bit rate : 4 439 Kbps
Maximum bit rate : 8 710 Kbps
Width : 720 pixels
Height : 576 pixels
Display aspect ratio : 16:9
Frame rate : 25.000 fps
Standard : PAL
Color space : YUV
Chroma subsampling : 4:2:0
Bit depth : 8 bits
Scan type : Interlaced
Scan order : Top Field First
Compression mode : Lossy
Bits/(Pixel*Frame) : 0.428
Time code of first frame : 01:26:36:18
Time code source : Group of pictures header
Stream size : 840 MiB (82%)
Audio #1
ID : 189 (0xBD)-128 (0x80)
Format : AC-3
Format/Info : Audio Coding 3
Mode extension : CM (complete main)
Format settings, Endianness : Big
Muxing mode : DVD-Video
Duration : 26mn 27s
Bit rate mode : Constant
Bit rate : 448 Kbps
Channel(s) : 6 channels
Channel positions : Front: L C R, Side: L R, LFE
Sampling rate : 48.0 KHz
Bit depth : 16 bits
Compression mode : Lossy
Delay relative to video : -768ms
Stream size : 84.8 MiB (8%)
Audio #2
ID : 189 (0xBD)-129 (0x81)
Format : AC-3
Format/Info : Audio Coding 3
Mode extension : CM (complete main)
Format settings, Endianness : Big
Muxing mode : DVD-Video
Duration : 26mn 27s
Bit rate mode : Constant
Bit rate : 224 Kbps
Channel(s) : 2 channels
Channel positions : Front: L R
Sampling rate : 48.0 KHz
Bit depth : 16 bits
Compression mode : Lossy
Delay relative to video : -704ms
Stream size : 42.4 MiB (4%)
Audio #3
ID : 189 (0xBD)-130 (0x82)
Format : AC-3
Format/Info : Audio Coding 3
Mode extension : CM (complete main)
Format settings, Endianness : Big
Muxing mode : DVD-Video
Duration : 26mn 27s
Bit rate mode : Constant
Bit rate : 192 Kbps
Channel(s) : 2 channels
Channel positions : Front: L R
Sampling rate : 48.0 KHz
Bit depth : 16 bits
Compression mode : Lossy
Delay relative to video : -704ms
Stream size : 36.3 MiB (4%)
Menu

DVD Info

Title: Het mes_1961_DVD5 R2
Size: 3.60 Gb ( 3 778 606,00 KBytes ) - DVD-5
Enabled regions: 1, 2, 3, 4, 5, 6, 7, 8
VTS_01 :
Play Length: 00:00:00
Video: PAL 16:9 (720x576) VBR, Auto Letterboxed
Audio:
English (Dolby AC3, 2 ch)
English (Dolby AC3, 2 ch)
Subtitles:
English
English
English
English
Not specified
Not specified
Not specified
VTS_02 :
Play Length: 00:00:22
Video: PAL 16:9 (720x576) VBR, Auto Letterboxed
Audio:
English (Dolby AC3, 6 ch)
English (Dolby AC3, 6 ch)
Subtitles:
English
English
English
English
VTS_03 :
Play Length: 00:00:05
Video: PAL 16:9 (720x576) VBR, Auto Letterboxed
Audio:
English (Dolby AC3, 2 ch)
English (Dolby AC3, 2 ch)
Subtitles:
English
English
English
English
VTS_04 :
Play Length: 00:00:05
Video: PAL 16:9 (720x576) VBR, Auto Letterboxed
Audio:
English (Dolby AC3, 2 ch)
English (Dolby AC3, 2 ch)
Subtitles:
English
English
English
English
VTS_05 :
Play Length: 00:01:35
Video: PAL 4:3 (720x576) VBR
Audio:
Nederlands (Dolby AC3, 2 ch)
Nederlands (Dolby AC3, 2 ch)
Subtitles:
English
English
English
English
VTS_06 :
Play Length: 00:03:08
Video: PAL 16:9 (720x576) VBR, Auto Letterboxed
Audio:
Nederlands (Dolby AC3, 2 ch)
Nederlands (Dolby AC3, 2 ch)
Subtitles:
Nederlands
Nederlands
Nederlands
Nederlands
VTS_07 :
Play Length: 01:25:13
Video: PAL 16:9 (720x576) VBR, Auto Letterboxed
Audio:
Nederlands, AC3, 3/2 (L,C,R,SL,SR)+LFE ch, 448 kbps, Delay 0 mSec
Nederlands, AC3, 2/0 (L,R) ch, 224 kbps, Delay 0 mSec
Russian, AC3, 2/0 (L,R) ch, 192 kbps, Delay 0 mSec
Subtitles:
English
Francais
Deutsch
Nederlands
Russian
* Menus Information *
VIDEO_TS Menu
Video:
NTSC 4:3 (720x480) VBR
Auto Pan&Scan, Auto Letterboxed
English Language Unit :
Title Menu
VTS_01 Menu
Video:
PAL 16:9 (720x576) VBR
Auto Letterboxed
Audio:
Not specified (Dolby AC3, 2 ch)
English Language Unit :
Root Menu
VTS_02 Menu
Video:
PAL 4:3 (720x576) VBR
English Language Unit :
Root Menu
VTS_03 Menu
Video:
PAL 4:3 (720x576) VBR
English Language Unit :
Root Menu
VTS_04 Menu
Video:
PAL 4:3 (720x576) VBR
English Language Unit :
Root Menu
VTS_05 Menu
Video:
PAL 4:3 (720x576) VBR
English Language Unit :
Root Menu
VTS_06 Menu
Video:
PAL 4:3 (720x576) VBR
English Language Unit :
Root Menu
VTS_07 Menu
Video:
PAL 4:3 (720x576) VBR
English Language Unit :
Root Menu

П. О.

PgcDemux 1.2.0.5 - разделение компонентов диска на файлы;
BeSweetv1.5b31+BeLight 0.21 - AC3, mp3 -> Wav
Sound Forge pro 10 - Wav -> AC3
MaestroSBT-Unicode-2.6.2.1 - Создание субтитров
DVDSubEdit -- Version 1.52 - Правка (цветовых схем) субтитров
MuxMan DVD authoring Professional 1.4.4 - мультиплексирование и авторинг DVD;
DVDRemake Pro 3.6.4 - реавторинг DVD;
DVD Shrink 3.2 -Сэмпл
VLC - Скриншоты-
-
-

-
-
-BeSweet v1.5b31 by DSPguru.
--------------------------
Using azid.dll v1.9 (b922) by Midas (midas@egon.gyaloglo.hu).
Logging start : 04/10/14 , 01:16:59.
BeSweet.exe -core( -input C:\Temp\HETmes\AudioFile_81.ac3 -output C:\Temp\HETmes\AudioFile_81.wav -2ch -logfile C:\Temp\HETmes\AudioFile_81.log ) -azid( -s mono -c normal -L -3db )
[00:00:00:000] +------- BeSweet -----
[00:00:00:000] | Input : C:\Temp\HETmes\AudioFile_81.ac3
[00:00:00:000] | Output: C:\Temp\HETmes\AudioFile_81.wav
[00:00:00:000] | Floating-Point Process: No
[00:00:00:000] +-------- AZID -------
[00:00:00:000] | Input Channels Mode: 2/0, Bitrate: 224kbps
[00:00:00:000] | Output Stereo mode: Dolby surround 2 compatible
[00:00:00:000] | Total Gain: 0.000dB, Compression: Normal
[00:00:00:000] | LFE levels: To LR -3.0dB, To LFE 0.0dB
[00:00:00:000] | Center mix level: BSI
[00:00:00:000] | Surround mix level: BSI
[00:00:00:000] | Dialog normalization: No
[00:00:00:000] | Rear channels filtering: No
[00:00:00:000] | Source Sample-Rate: 48.0KHz
[00:00:00:000] +---------------------
[01:25:12:992] Conversion Completed !
[01:25:12:992] Actual Avg. Bitrate : 695kbps
[00:00:51:000]
[teatrix.ru].t7478.torrent 
Торрент: Зарегистрирован [ 2015-10-12 09:59 ] · B0146150093DFFCF4B2850181F28DD5662D3AF4F

Скачать .torrent

Скачать

20 KB

Статус: проверено
Скачан: 0 раз
Размер: 3.6 GB
terms.php



Быстрый ответ

Имя:

      
Для отправки сообщений необходимо включить JavaScript
Показать сообщения:    

Текущее время: 11-Дек 16:54

Часовой пояс: UTC + 3


Вы можете начинать темы
Вы можете отвечать на сообщения
Вы не можете редактировать свои сообщения
Вы не можете удалять свои сообщения
Вы не можете голосовать в опросах
Вы не можете прикреплять файлы к сообщениям
Вы можете скачивать файлы