Вечное возвращение (Кира Муратова) [2012, Украина, мелодрама, комедия, DVD5] R5 Original Rus + Sub Ukr


Статистика раздачи [Обновить пиров]
Размер:  4.35 GB   |    Зарегистрирован:  1 год 1 месяц   |    Скачан:  0 раз

Полного источника не было: Никогда

 
   
 
 
 

[Цитировать]

-Вечное возвращение -Страна: Украина
Студия: Sota Cinema Group
Жанр: мелодрама, комедия
Год выпуска: 2012
Мировая премьера: 16 ноября 2012
Российская премьера: 3 октября 2013, «Top Film Distribution»
Украинская премьера: 3 октября 2013, «TFD Film Ukraine»
Дата выхода DVD: 26 ноября 2013, «Lizard Cinema Trade»
Продолжительность: 01:51:27
Перевод: Оригинал [Лицензия]
Cубтитры: украинские
Оригинальная аудиодорожка: русский-Режиссер: Кира Муратова-В ролях: Рената Литвинова, Олег Табаков, Сергей Маковецкий, Алла Демидова, Виталий Линецкий, Наталья Бузько, Георгий Делиев, Ута Кильтер, Юрий Невгамонный, Геннадий Скарга-Описание: Герои фильма — мужчина и женщина, не встречавшиеся много лет. Пришел мужчина к женщине. Пришел в шляпе, да так волновался, что забыл ее снять. Они однокурсники, не виделись сто лет, он и живет давно в другом городе, а сюда приехал в командировку. И сразу к ней, с вопросом: как поделить себя между женой и любовницей? Ни один совет не звучит убедительно: он любит обеих, но жить с обеими не в состоянии. Озлившись, визитер хлопает дверью. Но приходит вновь, ведь других знакомых в этом городе у него нет. И возвращается. И возвращается.-Бонусы: нет- -Релиз группы: -Качество: DVD5 R5
Формат: DVD-Video
Видео кодек: MPEG2
Аудио кодек: AC3
Видео: PAL 16:9 (720x576(0.551)) MPEG Video, 25,000 кадр/сек, 5716 Кбит/сек
Аудио: Russian (Dolby AC3, 6 ch) 448 Кбит/сек, 48,0 КГц--

DVDInfo

Title: Vechnoe.vozvrashhenie.2013.D.DVD5
Size: 4.35 Gb ( 4 559 530,00 KBytes ) - DVD-5
Enabled regions: 1, 2, 3, 4, 5, 6, 7, 8
VTS_01 :
Play Length: 01:51:27
Video: PAL 16:9 (720x576) VBR, Auto Letterboxed
Audio:
Russian (Dolby AC3, 6 ch)
Subtitles:
Ukrainian
VTS_02 :
Play Length: 00:00:08
Video: PAL 4:3 (720x576) VBR
VTS_03 :
Play Length: 00:00:21
Video: PAL 16:9 (720x576) VBR, Auto Letterboxed
Audio:
English (Dolby AC3, 2 ch)
* Menus Information *
VIDEO_TS Menu
Video:
NTSC 4:3 (720x480) VBR
Auto Pan&Scan, Auto Letterboxed
Russian Language Unit :
Title Menu
VTS_01 Menu
Video:
PAL 16:9 (720x576) VBR
Auto Letterboxed
Audio:
Not specified (Dolby AC3, 2 ch)
Russian Language Unit :
Root Menu
Subpicture Menu
Chapter (PTT) Menu
VTS_02 Menu
Video:
NTSC 4:3 (720x480) VBR
Auto Pan&Scan, Auto Letterboxed
Language Unit :
Subpicture Menu
Angle menu
Language Unit :
Language Unit :
Subpicture Menu
Chapter (PTT) Menu
Language Unit :
Language Unit :
Subpicture Menu
Chapter (PTT) Menu
VTS_03 Menu
Video:
NTSC 4:3 (720x480) VBR
Auto Pan&Scan, Auto Letterboxed
Language Unit :
Subpicture Menu
Angle menu
Language Unit :
Subpicture Menu
Angle menu
Language Unit :
Subpicture Menu
Angle menu
Language Unit :
Subpicture Menu
Angle menu
Language Unit :
Subpicture Menu
Angle menu

MediaInfo

Общее
Полное имя : D:\Новинки 2014\Vechnoe.vozvrashhenie.2013.D.DVD5\VIDEO_TS\VTS_01_1.VOB
Формат : MPEG-PS
Размер файла : 1024 Мбайт
Продолжительность : 22 м.
Режим общего битрейта : Переменный
Общий поток : 6289 Кбит/сек
Видео
Идентификатор : 224 (0xE0)
Формат : MPEG Video
Версия формата : Version 2
Профиль формата : Main@Main
Параметр BVOP формата : Да
Параметр матрицы формата : Выборочная
Параметр GOP формата : Variable
Продолжительность : 22 м.
Вид битрейта : Переменный
Битрейт : 5716 Кбит/сек
Максимальный битрейт : 8000 Кбит/сек
Ширина : 720 пикселей
Высота : 576 пикселей
Соотношение сторон : 16:9
Частота кадров : 25,000 кадров/сек
Стандарт вещания : PAL
Цветовое пространство : YUV
Субдискретизация насыщенности : 4:2:0
Битовая глубина : 8 бит
Тип развёртки : Чересстрочная
Порядок развёртки : Верхнее поле первое
Метод сжатия : С потерями
Бит/(Пиксели*Кадры) : 0.551
Временной код первого кадра : 00:00:00:00
Оригинал временного кода : Group of pictures header
Размер потока : 931 Мбайт (91%)
Аудио
Идентификатор : 189 (0xBD)-128 (0x80)
Формат : AC-3
Формат/Информация : Audio Coding 3
Расширение режима : CM (complete main)
Параметр Endianness формата : Big
Режим смешивания : DVD-Video
Продолжительность : 22 м.
Вид битрейта : Постоянный
Битрейт : 448 Кбит/сек
Каналы : 6 каналов
Расположение каналов : Front: L C R, Side: L R, LFE
Частота : 48,0 КГц
Битовая глубина : 16 бит
Метод сжатия : С потерями
Размер потока : 72,9 Мбайт (7%)
Текст
Идентификатор : 189 (0xBD)-32 (0x20)
Формат : RLE
Формат/Информация : Run-length encoding
Режим смешивания : DVD-Video
Задержка видео : 7 с. 840 мс.

Скриншоты меню

Скриншоты фильма

[teatrix.ru].t7480.torrent 
Торрент: Зарегистрирован [ 2015-10-12 09:59 ] · C2099AF0BBC3273369A6DD08407F203D3E757CF3

Скачать .torrent

Скачать

12 KB

Статус: проверено
Скачан: 0 раз
Размер: 4.35 GB
terms.php



Быстрый ответ

Имя:

      
Для отправки сообщений необходимо включить JavaScript
Показать сообщения:    

Текущее время: 09-Дек 08:54

Часовой пояс: UTC + 3


Вы можете начинать темы
Вы можете отвечать на сообщения
Вы не можете редактировать свои сообщения
Вы не можете удалять свои сообщения
Вы не можете голосовать в опросах
Вы не можете прикреплять файлы к сообщениям
Вы можете скачивать файлы