Трон в крови / Kumonosu-jo / Throne of Blood (Акира Куросава / Akira Kurosawa) [1957, Япония, Драма, История, DVD9 (Custom)] MVO(Триумф Видео) + VO + Sub Eng, Eng, Rus / Criterion Collection#190


Статистика раздачи [Обновить пиров]
Размер:  7.16 GB   |    Зарегистрирован:  1 год 1 месяц   |    Скачан:  0 раз

Полного источника не было: Никогда

 
   
 
 
 

[Цитировать]

Трон в крови / Kumonosu-jo / Throne of Blood / Criterion Collection#190 «Сильный воин здесь стал из-за женщины слаб…»
Страна:Япония
Студия:Kurosawa Production Co. Ltd., Toho Company
Жанр:Драма, История
Год выпуска:1957
Продолжительность:01:49:38
Производитель:The Criterion Collection #190
Перевод 1:Профессиональный (многоголосый закадровый) Триумф ВидеоПеревод 2:Одноголосый закадровыйCубтитры:Английские, Английские, Русские
Оригинальная аудиодорожка:Японский
Премьера (мир):15.01.1957Релиз на DVD:8.09.2011, «Cinema Prestige»Режиссер:Акира Куросава / Akira Kurosawa
Продюсер:Акира Куросава, Сёдзиро МотокиСценарий:Хидэо Огуни, Синобу Хасимото, Рюдзо КикусимаОператор:Асакадзу НакаиКомпозитор:Масару СатоХудожник:Ёсиро МуракиВ ролях:Тосиро Мифунэ, Исудзу Ямада, Такаси Симура, Акира Кубо, Хироши Татикава, Минору Чиаки, Такамару Сасаки, Ген Симидзу, Кокутэн Кодо, Китидзиро Уэда
Описание:Перемещение шекспировского Макбета в средневековую Японию. После грандиозной победы на поле брани, заблудившись в дремучем лесу, лорды Васидзу и Мики наталкиваются на загадочную вещую старуху, которая предсказывает великое будущее Васидзу, и еще более великое — потомкам Мики. Выбравшись из леса, они действительно получают вызов и почетные назначения от императора. Васидзу, подстрекаемый амбициозной женой, и задумывает пойти дальше предсказаний старой колдуньи, но судьба есть судьба…

Знаете ли вы, что...

Куросава задумал фильм по мотивам «Макбета» ещё в конце 1940-х и планировал снимать его после выхода «Расёмона», однако в 1948 году вышел в прокат «Макбет» Орсона Уэллса и Куросава решил отложить постановку на несколько лет.
Сцена гибели Васидзу снималась с участием настоящих лучников, которые, впрочем, стреляли бамбуковыми муляжами. По мнению Куросавы это должно было вызвать на лице Тосиро Мифунэ выражение настоящего опасения за свою жизнь, которое не так просто сымитировать.

Награды и номинации

Венецианский кинофестиваль, 1957год
Номинации (1):
Золотой лев.
В 1958 году картина была удостоена двух премий «Майнити» — за лучшую мужскую роль (Тосиро Мифунэ) и за лучшую работу художника (Ёсиро Мураки).
Доп. информация:Софт:PGCDemux (извлечение).
BeSweet, Sony Vegas 9 (звук).
DVD-lab PRO 2, Subtitle Workshop (субтитры).
MuxMan (сборка). DvdReMakePro (финал).Исходник найден в сети.Русский профессиональный (многоголосый) Триумф Видео и субтитрыender58Русский любительский (одноголосый)взят из раздачи aGGronomИз за превышения битрейта звуковая дорожка с комментариями удалена, русский любительский (одноголосый) переведен в 1.0.Реавторинг Нордер.
Огромное Спасибо Всем, без чьей помощи этот релиз не состоялся бы!Бонусы:(Без перевода).Трейлер.Меню:Английский, статичное, озвученное.

Сэмпл:http://multi-up.com/958245
Тип релиза:DVD9 (Custom) - BDRemux 1080p - BDRip 720p
Контейнер:DVD-Video
Видео:NTSC 4:3 (720x480) VBR, 8250 Кбит/сек, 29,970 кадров/сек
Аудио 1:Русский: AC3, 2 ch, 48,0 КГц, 192 Kbps (Профессиональный (многоголосый) Триумф Видео
Аудио 2:Русский: AC3, 1 ch, 48,0 КГц, 96 Kbps (Любительский (одноголосый)Аудио 3:Японский: AC3, 1 ch, 48.0 KHz, 192 Кбит/сек (Оригинал)Формат субтитров:prerendered (DVD/IDX+SUB)

Dvd Info

Title: Throne of Blood DVD-9_Custom_Criterion_#190
Size: 7.16 Gb ( 7 506 664,00 KBytes ) - DVD-9
Enabled regions: 1, 2, 3, 4, 5, 6, 7, 8
VTS_01 :
Play Length: 00:00:00
Video: NTSC 4:3 (720x480) VBR
Audio:
Japanese, AC3, 1/0 (C) ch, 192 kbps, Delay 0 mSec
English, AC3, 1/0 (C) ch, 192 kbps, Delay 0 mSec
Subtitles:
English
English
VTS_02 :
Play Length: 00:00:20
Video: NTSC 4:3 (720x480) VBR
Audio:
English, AC3, 1/0 (C) ch, 192 kbps, Delay 0 mSec
English, AC3, 1/0 (C) ch, 192 kbps, Delay 0 mSec
Subtitles:
English
English
VTS_03 :
Play Length: 00:03:43
Video: NTSC 4:3 (720x480) VBR
Audio:
Japanese, AC3, 1/0 (C) ch, 192 kbps, Delay 0 mSec
Subtitles:
English
VTS_04 :
Play Length: 01:49:38
Video: NTSC 4:3 (720x480) VBR
Audio:
Russian, AC3, 2/0 (L,R) ch, 192 kbps, Delay 0 mSec
Russian, AC3, 1/0 (C) ch, 96 kbps, Delay 0 mSec
Japanese, AC3, 1/0 (C) ch, 192 kbps, Delay 0 mSec
Subtitles:
English
English
Russian
VTS_05 :
Play Length: 00:00:00
Video: NTSC 4:3 (720x480) VBR
Audio:
Japanese, AC3, 1/0 (C) ch, 192 kbps, Delay 0 mSec
English, AC3, 1/0 (C) ch, 192 kbps, Delay 0 mSec
Subtitles:
English
English

MediaInfo

Общее
Полное имя: F:\Throne of Blood DVD-9_Custom_Criterion_#190\VIDEO_TS\VTS_04_1.VOB
Формат : MPEG-PS
Размер файла : 1024 Мбайт
Продолжительность : 16 м.
Режим общего битрейта : Переменный
Общий поток : 8907 Кбит/сек
Видео
Идентификатор : 224 (0xE0)
Формат : MPEG Video
Версия формата : Version 2
Профиль формата : Main@Main
Параметр BVOP формата : Да
Параметр матрицы формата : Выборочная
Параметр GOP формата : Variable
Продолжительность : 16 м.
Вид битрейта : Переменный
Битрейт : 8250 Кбит/сек
Максимальный битрейт : 9800 Кбит/сек
Ширина : 720 пикселей
Высота : 480 пикселей
Соотношение сторон : 4:3
Частота кадров : 29,970 кадров/сек
Стандарт вещания : Component
Цветовое пространство : YUV
Субдискретизация насыщенности : 4:2:0
Битовая глубина : 8 бит
Тип развёртки : Чересстрочная
Порядок развёртки : Верхнее поле первое
Метод сжатия : С потерями
Бит/(Пиксели*Кадры) : 0.797
Временной код первого кадра : 00:59:44:00
Оригинал временного кода : Group of pictures header
Размер потока : 948 Мбайт (93%)
Основные цвета : BT.601 NTSC
Характеристики трансфера : BT.601
Коэффициенты матрицы : BT.601
Аудио #1
Идентификатор : 189 (0xBD)-128 (0x80)
Формат : AC-3
Формат/Информация : Audio Coding 3
Расширение режима : CM (complete main)
Параметр Endianness формата : Big
Режим смешивания : DVD-Video
Продолжительность : 16 м.
Вид битрейта : Постоянный
Битрейт : 192 Кбит/сек
Каналы : 2 канала
Расположение каналов : Front: L R
Частота : 48,0 КГц
Битовая глубина : 16 бит
Метод сжатия : С потерями
Размер потока : 22,1 Мбайт (2%)
Аудио #2
Идентификатор : 189 (0xBD)-129 (0x81)
Формат : AC-3
Формат/Информация : Audio Coding 3
Расширение режима : CM (complete main)
Параметр Endianness формата : Big
Режим смешивания : DVD-Video
Продолжительность : 16 м.
Вид битрейта : Постоянный
Битрейт : 96,0 Кбит/сек
Каналы : 1 канал
Расположение каналов : Front: C
Частота : 48,0 КГц
Битовая глубина : 16 бит
Метод сжатия : С потерями
Размер потока : 11,0 Мбайт (1%)
Аудио #3
Идентификатор : 189 (0xBD)-130 (0x82)
Формат : AC-3
Формат/Информация : Audio Coding 3
Расширение режима : CM (complete main)
Параметр Endianness формата : Big
Режим смешивания : DVD-Video
Продолжительность : 16 м.
Вид битрейта : Постоянный
Битрейт : 192 Кбит/сек
Каналы : 1 канал
Расположение каналов : Front: C
Частота : 48,0 КГц
Битовая глубина : 16 бит
Метод сжатия : С потерями
Размер потока : 22,1 Мбайт (2%)
Текст #1
Идентификатор : 189 (0xBD)-32 (0x20)
Формат : RLE
Формат/Информация : Run-length encoding
Режим смешивания : DVD-Video
Текст #2
Идентификатор : 189 (0xBD)-33 (0x21)
Формат : RLE
Формат/Информация : Run-length encoding
Режим смешивания : DVD-Video
Текст #3
Идентификатор : 189 (0xBD)-34 (0x22)
Формат : RLE
Формат/Информация : Run-length encoding
Режим смешивания : DVD-Video

Скриншоты меню

Скриншоты

Скриншоты доп. материалов

Полиграфия

[teatrix.ru].t7501.torrent 
Торрент: Зарегистрирован [ 2015-10-12 09:59 ] · F85331B23214624F49ECEF16CB48C3DE1E248548

Скачать .torrent

Скачать

38 KB

Статус: проверено
Скачан: 0 раз
Размер: 7.16 GB
terms.php



Быстрый ответ

Имя:

      
Для отправки сообщений необходимо включить JavaScript
Показать сообщения:    

Текущее время: 07-Дек 13:39

Часовой пояс: UTC + 3


Вы можете начинать темы
Вы можете отвечать на сообщения
Вы не можете редактировать свои сообщения
Вы не можете удалять свои сообщения
Вы не можете голосовать в опросах
Вы не можете прикреплять файлы к сообщениям
Вы можете скачивать файлы