Любовь и смерть / Love and Death (Вуди Аллен / Woody Allen) [1975, Франция, США, комедия, военный, DVD9 (Custom)] [16:9 NTSC R1] DVO + VO + Sub (Spa Fre Rus Eng) + Original Eng + DUB Spa


Статистика раздачи [Обновить пиров]
Размер:  4.51 GB   |    Зарегистрирован:  1 год 1 месяц   |    Скачан:  0 раз

Полного источника не было: Никогда

 
   
 
 
 

[Цитировать]

Любовь и смерть / Love and Death
16:9 NTSC R1
Слоган: «The Comedy Sensation of the Year!» Страна: Франция, США
Студия: Jack Rollins & Charles H. Joffe Productions
Жанр: комедия, военный
Год выпуска: 1975
Продолжительность: 01:24:48
Перевод 1: Профессиональный (двухголосый закадровый)
Перевод 2: Одноголосый закадровый
Cубтитры: испанские, французсий, русский, английские[CC]
Оригинальная аудиодорожка: английский
Режиссер: Вуди Аллен / Woody Allen
В ролях: Вуди Аллен, Дайан Китон, Жорж Аде, Фрэнк Эду, Эдмон Ардиссон, Федор Аткин, Альбер Ожье, Ив Барсак, Ллойд Баттиста, Джек Берард.
Описание: Молодой русский дворянин из провинции пытается избежать призыва на войну с Наполеоном. Он ведет бесконечные «интеллигентские» разговоры со своей кузиной. Политика, философия и война — эти высокие материи стали темой бесконечного фейерверка иронии и юмора.
Доп. информация: Диск собран из Love and Death_1975_DVD5 R1 найденного в сети. (Который на постере)
Бонусы: Трейлер.
Меню: Статичное, озвученное, на английском.Меню отредактировано, добавлены кнопки переключение звуковых дорожек и субтитров.
Фильм стартует с рус. дорожкой.
--Спасибо за рус. двухголосый и одноголосый bm11
Спасибо за рус. субтитрыlankano
-- -
-

Точка перехода на второй слой


-
-Love and Death_1975_DVD9 R1_Sample_.rar-
-

Знаете ли вы, что... / Ошибки в фильме


-
-

Из книги «3500 кинорецензий»


-
-Тип релиза: DVD9 (Custom)
Контейнер: DVD-Video
Видео: NTSC 16:9 (720x480) VBR, Auto Letterboxed, ~ 7450.58 kbps avg
Аудио 1: English, AC3, 2/0 (L,R) ch, 192 kbps, Delay 0 mSec
Аудио 2: Espanol, AC3, 2/0 (L,R) ch, 192 kbps, Delay 0 mSec
Аудио 3: Russian, AC3, 2/0 (L,R) ch, 192 kbps, Delay 18 mSec - MVO
Аудио 4: Russian, AC3, 2/0 (L,R) ch, 192 kbps, Delay 18 mSec - VO
Формат субтитров: prerendered (DVD/IDX+SUB), СС (Closed Captions)

MediaInfo

General
Complete name : Love and Death_1975_DVD9 R1\VIDEO_TS\VTS_01_2.VOB
Format : MPEG-PS
File size : 1 024 MiB
Duration : 18mn 32s
Overall bit rate mode : Variable
Overall bit rate : 7 724 Kbps
Video
ID : 224 (0xE0)
Format : MPEG Video
Format version : Version 2
Format profile : Main@Main
Format settings, BVOP : Yes
Format settings, Matrix : Custom
Format settings, GOP : M=3, N=12
Duration : 18mn 32s
Bit rate mode : Variable
Bit rate : 6 802 Kbps
Maximum bit rate : 9 402 Kbps
Width : 720 pixels
Height : 480 pixels
Display aspect ratio : 16:9
Frame rate : 29.970 fps
Standard : NTSC
Color space : YUV
Chroma subsampling : 4:2:0
Bit depth : 8 bits
Compression mode : Lossy
Bits/(Pixel*Frame) : 0.657
Time code of first frame : 01:19:34;04
Time code source : Group of pictures header
Stream size : 902 MiB (88%)
Audio #1
ID : 189 (0xBD)-128 (0x80)
Format : AC-3
Format/Info : Audio Coding 3
Mode extension : CM (complete main)
Format settings, Endianness : Big
Muxing mode : DVD-Video
Duration : 18mn 32s
Bit rate mode : Constant
Bit rate : 192 Kbps
Channel(s) : 2 channels
Channel positions : Front: L R
Sampling rate : 48.0 KHz
Bit depth : 16 bits
Compression mode : Lossy
Delay relative to video : -359ms
Stream size : 25.5 MiB (2%)
Audio #2
ID : 189 (0xBD)-129 (0x81)
Format : AC-3
Format/Info : Audio Coding 3
Mode extension : CM (complete main)
Format settings, Endianness : Big
Muxing mode : DVD-Video
Duration : 18mn 32s
Bit rate mode : Constant
Bit rate : 192 Kbps
Channel(s) : 2 channels
Channel positions : Front: L R
Sampling rate : 48.0 KHz
Bit depth : 16 bits
Compression mode : Lossy
Delay relative to video : -359ms
Stream size : 25.5 MiB (2%)
Audio #3
ID : 189 (0xBD)-130 (0x82)
Format : AC-3
Format/Info : Audio Coding 3
Mode extension : CM (complete main)
Format settings, Endianness : Big
Muxing mode : DVD-Video
Duration : 18mn 32s
Bit rate mode : Constant
Bit rate : 192 Kbps
Channel(s) : 2 channels
Channel positions : Front: L R
Sampling rate : 48.0 KHz
Bit depth : 16 bits
Compression mode : Lossy
Delay relative to video : -359ms
Stream size : 25.5 MiB (2%)
Audio #4
ID : 189 (0xBD)-131 (0x83)
Format : AC-3
Format/Info : Audio Coding 3
Mode extension : CM (complete main)
Format settings, Endianness : Big
Muxing mode : DVD-Video
Duration : 18mn 32s
Bit rate mode : Constant
Bit rate : 192 Kbps
Channel(s) : 2 channels
Channel positions : Front: L R
Sampling rate : 48.0 KHz
Bit depth : 16 bits
Compression mode : Lossy
Delay relative to video : -359ms
Stream size : 25.5 MiB (2%)
Text #1
ID : 189 (0xBD)-32 (0x20)
Format : RLE
Format/Info : Run-length encoding
Muxing mode : DVD-Video
Duration : 18mn 27s
Delay relative to video : 4s 71ms
Text #2
ID : 189 (0xBD)-33 (0x21)
Format : RLE
Format/Info : Run-length encoding
Muxing mode : DVD-Video
Duration : 18mn 27s
Delay relative to video : 4s 104ms
Text #3
ID : 189 (0xBD)-34 (0x22)
Format : RLE
Format/Info : Run-length encoding
Muxing mode : DVD-Video
Duration : 18mn 28s
Delay relative to video : 2s 202ms
Text #4
ID : 224 (0xE0)-CC3
Format : EIA-608
Muxing mode, more info : Muxed in Video #1
Bit rate mode : Constant
Stream size : 0.00 Byte (0%)
Menu

DVD Info

Title: Love and Death_1975_DVD9 R1
Size: 4.51 Gb ( 4 730 846,00 KBytes ) - DVD-9
Enabled regions: 1, 2, 3, 4, 5, 6, 7, 8
VTS_01 :
Play Length: 01:24:48+00:00:01
Video: NTSC 16:9 (720x480) VBR, Auto Letterboxed
Audio:
English, AC3, 2/0 (L,R) ch, 192 kbps, Delay 0 mSec
Espanol, AC3, 2/0 (L,R) ch, 192 kbps, Delay 0 mSec
Russian, AC3, 2/0 (L,R) ch, 192 kbps, Delay 18 mSec
Russian, AC3, 2/0 (L,R) ch, 192 kbps, Delay 18 mSec
Subtitles:
Espanol
Francais
Russian
VTS_02 :
Play Length: 00:00:23+00:02:31
Video: NTSC 4:3 (720x480) VBR
Audio:
English (Dolby AC3, 2 ch)
VTS_03 :
Play Length: 00:00:11
Video: NTSC 16:9 (720x480) VBR, Auto Letterboxed
Audio:
English (Dolby AC3, 6 ch)
* Menus Information *
VIDEO_TS Menu
Video:
NTSC 16:9 (720x480) VBR
Auto Pan&Scan
English Language Unit :
Title Menu
VTS_01 Menu
Video:
NTSC 16:9 (720x480) VBR
Auto Pan&Scan
Audio:
Not specified (Dolby AC3, 2 ch)
English Language Unit :
Root Menu
Subpicture Menu
Audio Menu
Chapter (PTT) Menu
VTS_02 Menu
Video:
NTSC 4:3 (720x480) VBR
English Language Unit :
Root Menu
VTS_03 Menu
Video:
NTSC 16:9 (720x480) VBR
Auto Pan&Scan
English Language Unit :
Root Menu

П. О.

PgcDemux 1.2.0.5 - разделение компонентов диска на файлы;
BeSweetv1.5b31+BeLight 0.21 - AC3 -> Wav
Sound Forge pro 10 - Wav -> AC3
Adobe Photoshop CS2 - Правка меню
MaestroSBT-Unicode-2.6.2.1 - Создание субтитров
DVDSubEdit -- Version 1.52 - Правка (цветовых схем) субтитров
MuxMan DVD authoring Professional 1.4.4 - мультиплексирование и авторинг DVD;
DVDRemake Pro 3.6.4 - реавторинг DVD;
DVD Shrink 3.2 - Сэмпл
VLC - Скриншоты-
-
-


-
-
-BeSweet v1.5b31 by DSPguru.
--------------------------
Using azid.dll v1.9 (b922) by Midas (midas@egon.gyaloglo.hu).
Logging start : 03/07/14 , 22:02:03.
BeSweet.exe -core( -input C:\Temp\LOVE\DVO.ac3 -output C:\Temp\LOVE\DVO.wav -2ch -logfile C:\Temp\LOVE\DVO.log ) -azid( -s mono -c normal -L -3db )
[00:00:00:000] +------- BeSweet -----
[00:00:00:000] | Input : C:\Temp\LOVE\DVO.ac3
[00:00:00:000] | Output: C:\Temp\LOVE\DVO.wav
[00:00:00:000] | Floating-Point Process: No
[00:00:00:000] +-------- AZID -------
[00:00:00:000] | Input Channels Mode: 2/0, Bitrate: 192kbps
[00:00:00:000] | Output Stereo mode: Dolby surround 2 compatible
[00:00:00:000] | Total Gain: 0.000dB, Compression: Normal
[00:00:00:000] | LFE levels: To LR -3.0dB, To LFE 0.0dB
[00:00:00:000] | Center mix level: BSI
[00:00:00:000] | Surround mix level: BSI
[00:00:00:000] | Dialog normalization: No
[00:00:00:000] | Rear channels filtering: No
[00:00:00:000] | Source Sample-Rate: 48.0KHz
[00:00:00:000] +---------------------
[01:21:23:616] Conversion Completed !
[01:21:23:616] Actual Avg. Bitrate : 656kbps
[00:00:47:000]
[teatrix.ru].t7510.torrent 
Торрент: Зарегистрирован [ 2015-10-12 09:59 ] · AF2B7E1FC9685750EEA3CD9F0038762D2F794509

Скачать .torrent

Скачать

24 KB

Статус: проверено
Скачан: 0 раз
Размер: 4.51 GB
terms.php



Быстрый ответ

Имя:

      
Для отправки сообщений необходимо включить JavaScript
Показать сообщения:    

Текущее время: 05-Дек 21:39

Часовой пояс: UTC + 3


Вы можете начинать темы
Вы можете отвечать на сообщения
Вы не можете редактировать свои сообщения
Вы не можете удалять свои сообщения
Вы не можете голосовать в опросах
Вы не можете прикреплять файлы к сообщениям
Вы можете скачивать файлы