Долгая страстная пятница / The Long Good Friday (Джон МакКензи / John MacKenzie) [1980, Великобритания, Триллер, Драма, Криминал, Детектив, DVD9 (Custom)] MVO + MVO + AVO (Петр Карцев) + Original Eng / Criterion Collection#26


Статистика раздачи [Обновить пиров]
Размер:  4.84 GB   |    Зарегистрирован:  1 год 1 месяц   |    Скачан:  0 раз

Полного источника не было: Никогда

 
   
 
 
 

[Цитировать]

Долгая страстная пятница / The Long Good Friday / Criterion Collection#26 «Who lit the fuse that tore Harold's world apart?»
Страна:Великобритания
Студия:British Lion Film Corporation, Calendar Productions, Handmade Films Ltd.
Жанр:Триллер, Драма, Криминал, Детектив
Год выпуска:1980
Продолжительность:01:54:15
Производитель:The Criterion Collection #26
Перевод 1: Профессиональный (многоголосый закадровый №1)
Перевод 2: Профессиональный (многоголосый закадровый №2)
Перевод 3: Авторский (одноголосый закадровый) (Петр Карцев)
Cубтитры:Нет
Оригинальная аудиодорожка:Английский
Премьера (мир):31.03.1981Релиз на DVD:19.03.2009, ««Настроение Video»»Режиссер:Джон МакКензи / John MacKenzie
Продюсер:Бэрри Хэнсон, Крис Гриффин, Джордж ХаррисонСценарий:Барри КиффиОператор:Фил МейхьюКомпозитор:Френсис МонкменХудожник:Вик Саймондс, Тудор ДжорджМонтаж:Майк Тейлор
В ролях:Боб Хоскинс, Хелен Миррен, Дерек Томпсон, Брайан Маршалл, П.Х. Мориарти, Дейв Кинг, Пол Фримен, Пирс Броснан, Эдди Константин, Лео Долан
Описание:Напряженная гангстерская драма, действие которой происходит в Лондоне. Хоскинс играет нервного, но решительного главаря мафии Гарольда Шенда, пытающегося открыть свое легальное "дело" - большое Казино. В этот день приезжают американские партнеры, без помощи которых дело не выгорит, и в самый ответственный момент все планы решительно идут вразнос: кто-то подрывает мамин Роллс-Ройс, убивает лучшего друга, и чуть не взрывает Казино. Гарольд понимает, что "нормальные люди без предьявы не воюют", и решительно пытается найти негодяев, но ни один человек не знает кто же обьявил ему войну. Кто же этот таинственный враг, изо всех сил пытающийся разрушить жизнь Гарольда?

Знаете ли вы, что...

Пирс Броснан сыграл в этом фильме свою первую роль. Он играет убийцу и появляется в фильме несколько раз: в начале и в самом конце.
Кевин Макнелли, сыгравший запоминающуюся роль пирата Гиббса в трех фильмах Пираты Карибского моря, в Долгой страстной пятнице также сыграл эпизодическую роль.
Нил Янг в своем блоге, посвященном кино, так отозвался об этом фильме: «Долгая Страстная Пятница - это хрестоматийный пример того, какой британская картина должна быть». Фильм занимает 21 место в списке 100 лучших британских фильмов за 100 лет по версии Британского киноинститута.

Награды и номинации

Британская академия, 1982 год
Номинации (1):
Лучшая мужская роль (Боб Хоскинс)
Премия Эдгара Аллана По, 1983 год
Победитель (1):
Лучший фильм
Премия газеты «Evening Standard», 1982 год
Победитель (1):
Лучшая мужская роль (Боб Хоскинс)

Рецензия

Сергей Кудрявцев 8/10
Гангстерский фильм
Мафиози Хэролд Шенд из Лондона встречает американских подельников, с которыми хочет заключить выгодную сделку. Но целая серия загадочных убийств всё меняет в его планах. Выясняется, что даже организованная преступность не может противостоять действиям фанатиков-террористов из ИРА.
За океаном с энтузиазмом восприняли эту английскую картину, причисленную сразу же к классике гангстерского жанра, который вроде бы считается американским изобретением, поскольку новым и необычным был не только рассказ о нравах британской мафии. Более утончённая, многозначная манера повествования, прихотливый монтаж, неожиданные ракурсы, особенно в экспозиции, изобразительные изыски, сознательно замедленный, даже заторможенный ритм (впрочем, в середине фильма действие всё-таки провисает), оригинальный финал, который завершает события этой долгой, почти нескончаемой Страстной пятницы… И поневоле в истории лондонского гангстера видится судьба другого страстотерпца, распятого на кресте после предательства друзей.
Но отнюдь не подобное кощунственное сопоставление смутило английскую цензуру, которая препятствовала выходу ленты 48-летнего режиссёра Джона Маккензи, впервые обратившегося на себя внимание, хотя это была уже шестая его работа для кино. Ведь протестанты более терпимо, нежели католики, относятся к вольной интерпретации христианской проблематики. Другое дело — намёк на деятельность ИРА, которая всегда не устраивала британское правительство.
Доп. информация:Софт:PGCDemux (извлечение).
BeSweet, Sony Vegas 9 (звук).
MuxMan (сборка). DvdReMakePro (финал).Исходник найден в сети.З русские звуковые дорожки ТыНьО
.
Одноголосый (Петр Карцев) изначально был дутым, переведен в 2.0 и понижен битрейт.Реавторинг Нордер.Огромное Спасибо Всем, без чьей помощи этот релиз не состоялся бы!Бонусы:(Без перевода).Английский и американский триллер.Меню:Английский, анимированное, озвученное.
Сэмпл:http://multi-up.com/951546
Тип релиза:DVD9 (Custom)
Контейнер:DVD-Video
Видео:NTSC 4:3 (720x480) VBR, 6238 Кбит/сек, 29,970 кадров/сек
Аудио 1:Русский: AC3, 2 ch, 48.0 KHz, 192 Кбит/сек (Профессиональный многоголосый закадровый №1)
Аудио 2:Русский: AC3, 2 ch, 48.0 KHz, 192 Кбит/сек (Профессиональный многоголосый закадровый №2)Аудио 3:Русский: AC3, 2 ch, 48.0 KHz, 192 Кбит/сек (Одноголосый закадровый, П.Карцев)Аудио 4:Английский: AC3, 1 ch, 48.0 KHz, 192 Кбит/сек (Оригинал)Формат субтитров:prerendered (DVD/IDX+SUB)

Dvd Info

Title: The Long Good Friday DVDх9_Custom__Criterion_#26
Size: 4.84 Gb ( 5 074 480,00 KBytes ) - DVD-9
Enabled regions: 1, 2, 3, 4, 5, 6, 7, 8
VTS_01 :
Play Length: 00:02:30+00:02:04+01:54:15
Video: NTSC 4:3 (720x480) VBR
Audio:
Russian, AC3, 2/0 (C) ch, 192 kbps, Delay 0 mSec
Russian,
Russian,
English,

MediaInfo

Общее
Полное имя: F:\ The Long Good Friday DVDх9_Custom__Criterion_#26\VIDEO_TS\VTS_01_1.VOB
Формат : MPEG-PS
Размер файла : 1024 Мбайт
Продолжительность : 20 м.
Режим общего битрейта : Переменный
Общий поток : 7148 Кбит/сек
Видео
Идентификатор : 224 (0xE0)
Формат : MPEG Video
Версия формата : Version 2
Профиль формата : Main@Main
Параметр BVOP формата : Да
Параметр матрицы формата : Выборочная
Параметр GOP формата : M=3, N=12
Продолжительность : 20 м.
Вид битрейта : Переменный
Битрейт : 6238 Кбит/сек
Ширина : 720 пикселей
Высота : 480 пикселей
Соотношение сторон : 4:3
Частота кадров : 29,970 кадров/сек
Стандарт вещания : NTSC
Цветовое пространство : YUV
Субдискретизация насыщенности : 4:2:0
Битовая глубина : 8 бит
Метод сжатия : С потерями
Бит/(Пиксели*Кадры) : 0.602
Временной код первого кадра : 10:00:00:00
Оригинал временного кода : Group of pictures header
Размер потока : 894 Мбайт (87%)
Аудио #1
Идентификатор : 189 (0xBD)-128 (0x80)
Формат : AC-3
Формат/Информация : Audio Coding 3
Расширение режима : CM (complete main)
Параметр Endianness формата : Big
Режим смешивания : DVD-Video
Продолжительность : 20 м.
Вид битрейта : Постоянный
Битрейт : 192 Кбит/сек
Каналы : 2 канала
Расположение каналов : Front: C
Частота : 48,0 КГц
Битовая глубина : 16 бит
Метод сжатия : С потерями
Задержка видео : -66 мс.
Размер потока : 27,5 Мбайт (3%)
Аудио #2
Идентификатор : 189 (0xBD)-129 (0x81)
Формат : AC-3
Формат/Информация : Audio Coding 3
Расширение режима : CM (complete main)
Параметр Endianness формата : Big
Режим смешивания : DVD-Video
Продолжительность : 6 с. 848 мс.
Вид битрейта : Постоянный
Битрейт : 192 Кбит/сек
Каналы : 2 канала
Расположение каналов : Front: L R
Частота : 48,0 КГц
Битовая глубина : 16 бит
Метод сжатия : С потерями
Размер потока : 161 Кбайт (0%)
Аудио #3
Идентификатор : 189 (0xBD)-130 (0x82)
Формат : AC-3
Формат/Информация : Audio Coding 3
Расширение режима : CM (complete main)
Параметр Endianness формата : Big
Режим смешивания : DVD-Video
Продолжительность : 6 с. 848 мс.
Вид битрейта : Постоянный
Битрейт : 192 Кбит/сек
Каналы : 2 канала
Расположение каналов : Front: L R
Частота : 48,0 КГц
Битовая глубина : 16 бит
Метод сжатия : С потерями
Размер потока : 161 Кбайт (0%)
Аудио #4
Идентификатор : 189 (0xBD)-131 (0x83)
Формат : AC-3
Формат/Информация : Audio Coding 3
Расширение режима : CM (complete main)
Параметр Endianness формата : Big
Режим смешивания : DVD-Video
Продолжительность : 6 с. 848 мс.
Вид битрейта : Постоянный
Битрейт : 192 Кбит/сек
Каналы : 1 канал
Расположение каналов : Front: C
Частота : 48,0 КГц
Битовая глубина : 16 бит
Метод сжатия : С потерями
Размер потока : 161 Кбайт (0%)

Скриншоты меню

Скриншоты

Скриншоты доп. материалов

Полиграфия

[teatrix.ru].t7524.torrent 
Торрент: Зарегистрирован [ 2015-10-12 09:59 ] · 2BEE874653C464DCA05610781B9B9A6AC3F1EE0D

Скачать .torrent

Скачать

25 KB

Статус: проверено
Скачан: 0 раз
Размер: 4.84 GB
terms.php



Быстрый ответ

Имя:

      
Для отправки сообщений необходимо включить JavaScript
Показать сообщения:    

Текущее время: 09-Дек 22:28

Часовой пояс: UTC + 3


Вы можете начинать темы
Вы можете отвечать на сообщения
Вы не можете редактировать свои сообщения
Вы не можете удалять свои сообщения
Вы не можете голосовать в опросах
Вы не можете прикреплять файлы к сообщениям
Вы можете скачивать файлы