Зверь / El bruto (Луис Бунюэль / Luis Buñuel (Luis Bunuel)) [1953, Мексика, драма, DVD5 (Custom)] [4:3 NTSC R1] DVO + Sub Eng + Original Spa


Статистика раздачи [Обновить пиров]
Размер:  3.72 GB   |    Зарегистрирован:  1 год 1 месяц   |    Скачан:  1 раз

Полного источника не было: 6 месяцев 8 дней

 
   
 
 
 

[Цитировать]

Зверь / El bruto
4:3 NTSC R1
Страна: Мексика
Студия: Internacional Cinematográfica
Жанр: драма
Год выпуска: 1953
Продолжительность: 01:20:38
Перевод: Профессиональный (двухголосый закадровый)
Cубтитры: английские
Оригинальная аудиодорожка: испанский
Режиссер: Луис Бунюэль / Luis Buñuel (Luis Bunuel)
В ролях: Педро Армендарис, Кэти Хурадо, Роса Аренас, Андрес Солер, Беатриз Рамос, Пако Мартинес, Роберто Мейер, Глория Местре, Пас Виллегас, Хосе Муньос.
Описание: Чтобы выгнать квартиросъемщиков, домовладелец Андрес Кабрера нанимает сурового туповатого мясника Педро, по прозвищу Зверь..
Доп. информация: Диск собран из El bruto_1953_DVD5 R1 найденного в сети. (Который на постере)
Меню: Анимированное, озвученное, на английском.Меню неотредактировано, переключение дорожек с пульта.--Спасибо за рус. двухголосый SergeyJah88-- --Синхронизация звук. дорожки Нордер
За что ему превеликая благодарность
-
-
--El bruto_1953_DVD5 R1_Sample_.rar--Тип релиза: DVD5 (Custom)
Контейнер: DVD-Video
Видео: NTSC 4:3 (720x480) VBR, ~ 6592.65 kbps avg
Аудио 1: Russian, AC3, 2/0 (L,R) ch, 192 kbps, Delay 0 mSec
Аудио 2: Espanol, AC3, 2/0 (L,R) ch, 192 kbps, Delay 0 mSec
Формат субтитров: prerendered (DVD/IDX+SUB)

MediaInfo

General
Complete name : El bruto_1953_DVD5 R1\VIDEO_TS\VTS_01_2.VOB
Format : MPEG-PS
File size : 1 024 MiB
Duration : 21mn 55s
Overall bit rate mode : Variable
Overall bit rate : 6 529 Kbps
Video
ID : 224 (0xE0)
Format : MPEG Video
Format version : Version 2
Format profile : Main@Main
Format settings, BVOP : Yes
Format settings, Matrix : Custom
Format settings, GOP : M=3, N=15
Duration : 21mn 55s
Bit rate mode : Variable
Bit rate : 6 000 Kbps
Width : 720 pixels
Height : 480 pixels
Display aspect ratio : 4:3
Frame rate : 29.970 fps
Standard : NTSC
Color space : YUV
Chroma subsampling : 4:2:0
Bit depth : 8 bits
Scan type : Interlaced
Scan order : Bottom Field First
Compression mode : Lossy
Bits/(Pixel*Frame) : 0.579
Time code of first frame : 00:22:01:03
Time code source : Group of pictures header
Stream size : 943 MiB (92%)
Audio #1
ID : 189 (0xBD)-128 (0x80)
Format : AC-3
Format/Info : Audio Coding 3
Mode extension : CM (complete main)
Format settings, Endianness : Big
Muxing mode : DVD-Video
Duration : 21mn 55s
Bit rate mode : Constant
Bit rate : 192 Kbps
Channel(s) : 2 channels
Channel positions : Front: L R
Sampling rate : 48.0 KHz
Bit depth : 16 bits
Compression mode : Lossy
Delay relative to video : -501ms
Stream size : 30.1 MiB (3%)
Audio #2
ID : 189 (0xBD)-129 (0x81)
Format : AC-3
Format/Info : Audio Coding 3
Mode extension : CM (complete main)
Format settings, Endianness : Big
Muxing mode : DVD-Video
Duration : 21mn 55s
Bit rate mode : Constant
Bit rate : 192 Kbps
Channel(s) : 2 channels
Channel positions : Front: L R
Sampling rate : 48.0 KHz
Bit depth : 16 bits
Compression mode : Lossy
Delay relative to video : -501ms
Stream size : 30.1 MiB (3%)
Text
ID : 189 (0xBD)-32 (0x20)
Format : RLE
Format/Info : Run-length encoding
Muxing mode : DVD-Video
Duration : 21mn 53s
Delay relative to video : 767ms
Menu

DVD Info

Title: El bruto_1953_DVD5 R1
Size: 3.72 Gb ( 3 904 610,00 KBytes ) - DVD-5
Enabled regions: 1, 2, 3, 4, 5, 6, 7, 8
VTS_01 :
Play Length: 01:20:38
Video: NTSC 4:3 (720x480) VBR
Audio:
Russian, AC3, 2/0 (L,R) ch, 192 kbps, Delay 0 mSec
Espanol, AC3, 2/0 (L,R) ch, 192 kbps, Delay 0 mSec
Subtitles:
English
VTS_02 :
Play Length: 00:00:12
Video: NTSC 4:3 (720x480) VBR
Audio:
English (Dolby AC3, 2 ch)
* Menus Information *
VIDEO_TS Menu
Video:
NTSC 4:3 (720x480) VBR
Auto Pan&Scan, Auto Letterboxed
English Language Unit :
Title Menu
VTS_01 Menu
Video:
NTSC 4:3 (720x480) VBR
Audio:
Not specified (Dolby AC3, 2 ch)
English Language Unit :
Root Menu
VTS_02 Menu
Video:
NTSC 4:3 (720x480) VBR
English Language Unit :
Root Menu

П. О.

PgcDemux 1.2.0.5 - разделение компонентов диска на файлы;
MuxMan DVD authoring Professional 1.4.4 - мультиплексирование и авторинг DVD;
DVDRemake Pro 3.6.4 - реавторинг DVD;
DVD Shrink 3.2 - Сэмпл
VLC - Скриншоты-
-
- -
-
-MuxMan version 1.4.4
new project database size 400, base 2630018.
new pointer management list size 50.
new clipboard database size 20, base 288f50.
Accepted audio C:\Temp\bruto\ElBruto_1952_LuisBunuel рус синхр.ac3
Accepted audio C:\Temp\bruto\AudioFile_80.ac3
12:00:13 Begin multiplex VTS01.
Title Segment List
Segment_1 non-seamless
Encoded stream 20 is script stream 1.
Buffering audio track 1 file C:\Temp\bruto\ElBruto_1952_LuisBunuel рус синхр.ac3.
Buffering audio track 2 file C:\Temp\bruto\AudioFile_80.ac3.
Maximum audio duration 290286 fields.
Multiplex delay set to 25257.
Positioned C:\Temp\bruto\VideoFile.m2v to 00:00:00:00
Starting scene Segment_1_scn1 at 00:00:00:00
Starting scene Segment_1_scn2 at 00:01:40:01
Starting scene Segment_1_scn3 at 00:09:30:16
Starting scene Segment_1_scn4 at 00:16:03:01
Starting scene Segment_1_scn5 at 00:23:22:16
Starting scene Segment_1_scn6 at 00:32:38:16
Starting scene Segment_1_scn7 at 00:37:29:16
Starting scene Segment_1_scn8 at 00:46:31:01
Starting scene Segment_1_scn9 at 00:59:31:16
Starting scene Segment_1_scn10 at 01:10:18:16
SeqEnd at D85AC3CF.
Bytes remaining in buffer = 0.
Bitrate - avg: 6509791, min: 552407 (lba 0), max: 10049726 (lba 1156524).
Shortest GOP has 30 fields, longest GOP has 34 fields.
Fields: 290286, VOBU: 9676, Sectors: 1924226.
12:06:47 Begin multiplex VMG.
12:06:47 End multiplex.
Summary of Virtual Memory Management
VM base 02630000, reserved 5d000000, commited 00010000, free 5d68, disposable 0.
handle 1, size a298 (41600 data), owner 80000001, time 0, locks 1 0 0, lcnt 1.
Locked by DBinit.
handle 0, size 5d68 (23888 data), owner 0, time 0, locks 0 0 0, lcnt 0.

Скриншоты меню


-
-
-

Коврик и Блинчик



-
-

Доп.






[teatrix.ru].t7527.torrent 
Торрент: Зарегистрирован [ 2015-10-12 09:59 ] · A6E7A8C40BD1D8A45A1CF2454DE25DC423263C2B

Скачать .torrent

Скачать

20 KB

Статус: проверено
Скачан: 1 раз
Размер: 3.72 GB
terms.php



Быстрый ответ

Имя:

      
Для отправки сообщений необходимо включить JavaScript
Показать сообщения:    

Текущее время: 06-Дек 17:04

Часовой пояс: UTC + 3


Вы можете начинать темы
Вы можете отвечать на сообщения
Вы не можете редактировать свои сообщения
Вы не можете удалять свои сообщения
Вы не можете голосовать в опросах
Вы не можете прикреплять файлы к сообщениям
Вы можете скачивать файлы