Любовь холоднее смерти / Love is colder than death (Райнер Вернер Фассбиндер / Rainer Werner Fassbinder) [1969, Германия (ФРГ), Драма, Криминал, DVD5 (Custom)] MVO + Sub Eng, Rus + Original Ger / Criterion.Eclipse Series #39


Статистика раздачи [Обновить пиров]
Размер:  4.37 GB   |    Зарегистрирован:  1 год 1 месяц   |    Скачан:  0 раз

Полного источника не было: Никогда

 
   
 
 
 

[Цитировать]

Любовь холоднее смерти / Liebe ist kalter als der Tod / Love is colder than death / Criterion.Eclipse Series #39 «Eine knallharte Geschichte vom Leben, vom Lieben und vom Sterben»
Страна:Германия (ФРГ)
Студия:Antiteater-X-Film
Жанр:Мелодрама, Комедия, Криминал
Год выпуска:1969
Продолжительность:01:28:44
Производитель:Criterion
Перевод:Профессиональный (многоголосый закадровый)
Cубтитры:Английские, Русские
Оригинальная аудиодорожка:Немецкий
Премьера (мир):26.06.1969
Режиссер:Райнер Вернер Фассбиндер / Rainer Werner FassbinderСценарий:Райнер Вернер ФассбиндерОператор:Дитрих ЛоманнКомпозитор:Хольгер Мюнцер, Пер Рабен
Монтаж:Райнер Вернер Фассбиндер
В ролях:Улли Ломмель, Ханна Шигулла, Катрин Шааке, Лиц Зёлльнер, Гизела Отто,
Урсула Штрёц, Моника Нюхтерн, Ганс Хиршмюллер, Лес Ольфидес, Пер Рабен
Описание: Герою фильма Бруно предлагают вступить в банду для ограбления банка. Параллельно он оказывается втянут в любовную интригу между Джоанной и сутенером Францем. Есть несколько путей выхода из создавшейся ситуации.

Награды и номинации

Берлинский кинофестиваль, 1969 год
Номинации (1):
Золотой Медведь
Доп. информация:Софт:PGCDemux (извлечение).
BeSweet, Sony Vegas 9 (звук).
DVD-lab PRO 2, Subtitle Workshop (субтитры).
MuxMan (сборка). DvdReMakePro (финал).Исходник найден в сети.
Русский профессиональный (многоголосый) и субтитры.
Реавторинг Нордер.Огромное Спасибо Всем, без чьей помощи этот релиз не состоялся бы!Меню:Английский, статичное, неозвученное.

Сэмпл:http://multi-up.com/947395
Тип релиза:DVD5 (Custom)
Контейнер:DVD-Video
Видео:NTSC 16:9 (720x480) VBR, Auto Letterboxed, 6363 Кбит/сек, 23,976 кадра/сек
Аудио 1:Русский: AC3, 2 ch, 48,0 КГц, 224 Kbps, Профессиональный (многоголосый закадровый)
Аудио 2:Немецкий: AC3, 1 ch, 48,0 КГц, 384 Kbps (Оригинал)
Формат субтитров:prerendered (DVD/IDX+SUB)

Dvd Info

Title: Eclipse Series #39_LOVE IS COLDER THAN DEATH
Size: 4.37 Gb ( 4 579 728,00 KBytes ) - DVD-5
Enabled regions: 1, 2, 3, 4, 5, 6, 7, 8
VTS_01 :
Play Length: 00:00:00
Video: NTSC 16:9 (720x480) VBR, Auto Letterboxed
VTS_02 :
Play Length: 01:28:44
Video: NTSC 16:9 (720x480) VBR, Auto Letterboxed
Audio:
Russian, AC3, 2/0 (L,R) ch, 224 kbps, Delay 0 mSec
Deutsch, AC3, 1/0 (C) ch, 384 kbps, Delay 0 mSec
Subtitles:
English
Russian
VTS_03 :
Play Length: 00:00:20
Video: NTSC 16:9 (720x480) VBR, Auto Pan&Scan
VTS_04 :
Play Length: 00:00:00
Video: NTSC 4:3 (720x480) VBR

MediaInfo

Общее
Полное имя : F:\Eclipse Series 39 Early Fassbinder (1969-1970)\Eclipse Series #39_LOVE IS COLDER THAN DEATH\VIDEO_TS\VTS_02_5.VOB
Формат : MPEG-PS
Размер файла : 372 Мбайт
Продолжительность : 7 м. 18 с.
Режим общего битрейта : Переменный
Общий поток : 7112 Кбит/сек
Видео
Идентификатор : 224 (0xE0)
Формат : MPEG Video
Версия формата : Version 2
Профиль формата : Main@Main
Параметр BVOP формата : Да
Параметр матрицы формата : Выборочная
Параметр GOP формата : Variable
Продолжительность : 7 м. 17 с.
Вид битрейта : Переменный
Битрейт : 6363 Кбит/сек
Максимальный битрейт : 9800 Кбит/сек
Ширина : 720 пикселей
Высота : 480 пикселей
Соотношение сторон : 16:9
Частота кадров : 23,976 кадра/сек
Стандарт вещания : NTSC
Цветовое пространство : YUV
Субдискретизация насыщенности : 4:2:0
Битовая глубина : 8 бит
Тип развёртки : Прогрессивная
Порядок развёртки : 2:3 Pulldown
Метод сжатия : С потерями
Бит/(Пиксели*Кадры) : 0.768
Временной код первого кадра : 02:21:07:10
Оригинал временного кода : Group of pictures header
Размер потока : 332 Мбайт (89%)
Аудио #1
Идентификатор : 189 (0xBD)-128 (0x80)
Формат : AC-3
Формат/Информация : Audio Coding 3
Расширение режима : CM (complete main)
Параметр Endianness формата : Big
Режим смешивания : DVD-Video
Продолжительность : 7 м. 18 с.
Вид битрейта : Постоянный
Битрейт : 224 Кбит/сек
Каналы : 2 канала
Расположение каналов : Front: L R
Частота : 48,0 КГц
Битовая глубина : 16 бит
Метод сжатия : С потерями
Задержка видео : -551 мс.
Размер потока : 11,7 Мбайт (3%)
Аудио #2
Идентификатор : 189 (0xBD)-129 (0x81)
Формат : AC-3
Формат/Информация : Audio Coding 3
Расширение режима : CM (complete main)
Параметр Endianness формата : Big
Режим смешивания : DVD-Video
Продолжительность : 7 м. 18 с.
Вид битрейта : Постоянный
Битрейт : 384 Кбит/сек
Каналы : 1 канал
Расположение каналов : Front: C
Частота : 48,0 КГц
Битовая глубина : 16 бит
Метод сжатия : С потерями
Задержка видео : -583 мс.
Размер потока : 20,1 Мбайт (5%)
Текст #1
Идентификатор : 189 (0xBD)-32 (0x20)
Формат : RLE
Формат/Информация : Run-length encoding
Режим смешивания : DVD-Video
Текст #2
Идентификатор : 189 (0xBD)-33 (0x21)
Формат : RLE
Формат/Информация : Run-length encoding
Режим смешивания : DVD-Video

Скриншоты меню

Скриншоты

[teatrix.ru].t7535.torrent 
Торрент: Зарегистрирован [ 2015-10-12 09:59 ] · 281EA77130449AB34F89E5A0A19260A69ED070BC

Скачать .torrent

Скачать

23 KB

Статус: проверено
Скачан: 0 раз
Размер: 4.37 GB
terms.php



Быстрый ответ

Имя:

      
Для отправки сообщений необходимо включить JavaScript
Показать сообщения:    

Текущее время: 10-Дек 19:34

Часовой пояс: UTC + 3


Вы можете начинать темы
Вы можете отвечать на сообщения
Вы не можете редактировать свои сообщения
Вы не можете удалять свои сообщения
Вы не можете голосовать в опросах
Вы не можете прикреплять файлы к сообщениям
Вы можете скачивать файлы