Катцельмахер / Katzelmacher (Райнер Вернер Фассбиндер / Rainer Werner Fassbinder) [1969, Германия (ФРГ), Драма, Мелодрама, DVD9 (Custom)]+DVO + Sub Eng, Rus + Original Ger / Criterion.Eclipse Series #39


Статистика раздачи [Обновить пиров]
Размер:  4.4 GB   |    Зарегистрирован:  1 год 3 месяца   |    Скачан:  1 раз

Полного источника не было: 1 месяц 28 дней

 
   
 
 
 

[Цитировать]

Катцельмахер / Katzelmacher / Criterion.Eclipse Series #39
Страна:Германия (ФРГ)
Студия:Antiteater-X-Film
Жанр:Драма, Мелодрама
Год выпуска:1969
Продолжительность:01:29:22
Производитель:Criterion
Перевод:Профессиональный (двухголосый закадровый)
Cубтитры:Английские, Русские
Оригинальная аудиодорожка:Немецкий
Премьера (мир):8.10.1969
Режиссер:Райнер Вернер Фассбиндер / Rainer Werner Fassbinder
Продюсер:Пер РабенСценарий:Райнер Вернер ФассбиндерОператор:Дитрих ЛоманнКомпозитор:Пер Рабен
Монтаж:Райнер Вернер Фассбиндер
В ролях:Ханна Шигулла — Мария
Лилит Унгерер — Хельга
Рудольф Вальдемар Брем — Пауль
Ирм Херманн — Элизабет
Эльга Сорбас — Рози
Дорис Маттес — Гунда
Петер Моланд — Петер
Ханс Хиршмюллер — Эрих
Харри Бэр — Франц
Ханнес Громбалль — Клаус
Райнер Вернер Фассбиндер — Йоргос
Описание: Компания молодых баварских обывателей, бывших одноклассников занимается тем, что ничего не делает. Как бы разговаривают, как бы ходят в кафе, как бы занимаются любовью.
Некоторое разнообразие в их жизнь вносит грек, приехавший в Германию на заработки. Вся компания начинает третировать приезжего.

Фасбиндер, Райнер Вернер

http://ru.wikipedia.org/wiki/%D0%A4%D0%B0%D1%81%D0%...0%BD%D0%B5%D1%80Знаете ли вы, что..."]
Фильм был снят за девять дней.

Награды и номинации

Katzelmacher bekam bei seiner Urauffuhrung 1969 auf der Filmwoche in Mannheim den Interfilmpreis. Ebenfalls 1969 wurde Katzelmacher von der Akademie der Darstellenden Kunste als Bestes Fernsehspiel ausgezeichnet.
Im Jahr 1970 erhielt Katzelmacher den Deutschen Filmpreis („Bundesfilmpreis“) in funf Kategorien:
Bester Film – Herstellung, pramiert mit 400.000 DM: antiteater-X-Film
Bester Film – Gestaltung, pramiert mit 250.000 DM: Rainer Werner Fassbinder
Beste weibliche Darstellung: Schauspielensemble des antiteaters
Beste Kamera: Dietrich Lohmann
Bestes Drehbuch: Rainer Werner Fassbinder
Die Trophae fur den besten Film musste sich Katzelmacher mit Peter Lilienthals Malatesta teilen. Dietrich Lohmann erhielt den Preis fur die Kamerafuhrung in Fassbinders Filmen Liebe ist kalter als der Tod, Katzelmacher, Gotter der Pest und in Thomas Schamonis Ein gro?er graublauer Vogel. Der Preis fur die beste Darstellung ging an die Frauen des antiteater-Ensembles fur die drei Filme Liebe ist kalter als der Tod, Katzelmacher und Gotter der Pest.[5][6]
Im Jahre 1989 war Katzelmacher bei der Verleihung des Deutschen Filmpreises fur einen Spezialpreis zum vierzigjahrigen Bestehen der Bundesrepublik Deutschland nominiert. Der Preis ging dann an Fassbinders Film Die Ehe der Maria Braun (1979) sowie an Alexander Kluges Abschied von gestern (1966), Margarethe von Trottas Die bleierne Zeit (1981) und Bernhard Wickis Die Brucke (1959).
Доп. информация:Софт:PGCDemux (извлечение).
BeSweet, Sony Vegas 9 (звук).
DVD-lab PRO 2, Subtitle Workshop (субтитры).
MuxMan (сборка). DvdReMakePro (финал).Исходник найден в сети.
Русский профессиональный (двухголосый) и субтитрывзяты из раздачи Fando Gris .Реавторинг Нордер.Огромное Спасибо Всем, без чьей помощи этот релиз не состоялся бы!Меню:Английский, статичное, неозвученное.

Сэмпл:http://multi-up.com/947013
Тип релиза:DVD9 (Custom)
Контейнер:DVD-Video
Видео:NTSC 4:3 (720x480) VBR, 6466 Кбит/сек, 23,976 кадра/сек
Аудио 1:Русский: AC3, 2 ch, 48,0 КГц, 224 Kbps, Профессиональный (двухголосый)
Аудио 2:Немецкий: AC3, 1 ch, 48,0 КГц, 384 Kbps (Оригинал)
Формат субтитров:prerendered (DVD/IDX+SUB)

Dvd Info

Title: Eclipse Series #39_ KATZELMACHER
Size: 4.40 Gb ( 4 618 628,00 KBytes ) - DVD-9
Enabled regions: 1, 2, 3, 4, 5, 6, 7, 8
VTS_01 :
Play Length: 00:00:00
Video: NTSC 4:3 (720x480) VBR
VTS_02 :
Play Length: 01:29:22
Video: NTSC 4:3 (720x480) VBR
Audio:
Russian, AC3, 2/0 (L,R) ch, 224 kbps, Delay 0 mSec
Deutsch, AC3, 1/0 (C) ch, 384 kbps, Delay 0 mSec
Subtitles:
English
Russian
VTS_03 :
Play Length: 00:00:20
Video: NTSC 4:3 (720x480) VBR
VTS_04 :
Play Length: 00:00:00
Video: NTSC 4:3 (720x480) VBR

MediaInfo

Общее
Полное имя : F:\Eclipse Series 39 Early Fassbinder (1969-1970)\Eclipse Series #39_KATZELMACHER\VIDEO_TS\VTS_02_1.VOB
Формат : MPEG-PS
Размер файла : 1024 Мбайт
Продолжительность : 19 м.
Режим общего битрейта : Переменный
Общий поток : 7218 Кбит/сек
Видео
Идентификатор : 224 (0xE0)
Формат : MPEG Video
Версия формата : Version 2
Профиль формата : Main@Main
Параметр BVOP формата : Да
Параметр матрицы формата : Выборочная
Параметр GOP формата : Variable
Продолжительность : 19 м.
Вид битрейта : Переменный
Битрейт : 6466 Кбит/сек
Максимальный битрейт : 9800 Кбит/сек
Ширина : 720 пикселей
Высота : 480 пикселей
Соотношение сторон : 4:3
Частота кадров : 23,976 кадра/сек
Стандарт вещания : NTSC
Цветовое пространство : YUV
Субдискретизация насыщенности : 4:2:0
Битовая глубина : 8 бит
Тип развёртки : Прогрессивная
Порядок развёртки : 2:3 Pulldown
Метод сжатия : С потерями
Бит/(Пиксели*Кадры) : 0.780
Временной код первого кадра : 00:59:40:00
Оригинал временного кода : Group of pictures header
Размер потока : 917 Мбайт (90%)
Аудио #1
Идентификатор : 189 (0xBD)-128 (0x80)
Формат : AC-3
Формат/Информация : Audio Coding 3
Расширение режима : CM (complete main)
Параметр Endianness формата : Big
Режим смешивания : DVD-Video
Продолжительность : 19 м.
Вид битрейта : Постоянный
Битрейт : 224 Кбит/сек
Каналы : 2 канала
Расположение каналов : Front: L R
Частота : 48,0 КГц
Битовая глубина : 16 бит
Метод сжатия : С потерями
Размер потока : 31,8 Мбайт (3%)
Аудио #2
Идентификатор : 189 (0xBD)-129 (0x81)
Формат : AC-3
Формат/Информация : Audio Coding 3
Расширение режима : CM (complete main)
Параметр Endianness формата : Big
Режим смешивания : DVD-Video
Продолжительность : 19 м.
Вид битрейта : Постоянный
Битрейт : 384 Кбит/сек
Каналы : 1 канал
Расположение каналов : Front: C
Частота : 48,0 КГц
Битовая глубина : 16 бит
Метод сжатия : С потерями
Размер потока : 54,5 Мбайт (5%)
Текст #1
Идентификатор : 189 (0xBD)-32 (0x20)
Формат : RLE
Формат/Информация : Run-length encoding
Режим смешивания : DVD-Video
Текст #2
Идентификатор : 189 (0xBD)-33 (0x21)
Формат : RLE
Формат/Информация : Run-length encoding
Режим смешивания : DVD-Video

Скриншоты меню

Скриншоты

[teatrix.ru].t7536.torrent 
Торрент: Зарегистрирован [ 2015-10-12 09:59 ] · 739D82F72F97200454585D48599883590FF4B333

Скачать .torrent

Скачать

24 KB

Статус: проверено
Скачан: 1 раз
Размер: 4.4 GB
terms.php



Быстрый ответ

Имя:

      
Для отправки сообщений необходимо включить JavaScript
Показать сообщения:    

Текущее время: 24-Янв 12:14

Часовой пояс: UTC + 3


Вы можете начинать темы
Вы можете отвечать на сообщения
Вы не можете редактировать свои сообщения
Вы не можете удалять свои сообщения
Вы не можете голосовать в опросах
Вы не можете прикреплять файлы к сообщениям
Вы можете скачивать файлы