Боги чумы / Götter der Pest / Gods of the Plague (Райнер Вернер Фассбиндер / Rainer Werner Fassbinder) [1969, Германия (ФРГ), Драма, Криминал, DVD5 (Custom)] + Sub Eng, Rus, Rus(Dmitry Yudaev) + Original Ger / Criterion.Eclipse Series #39


Статистика раздачи [Обновить пиров]
Размер:  4.32 GB   |    Зарегистрирован:  1 год 1 месяц   |    Скачан:  0 раз

Полного источника не было: Никогда

 
   
 
 
 

[Цитировать]

Боги чумы / Gotter der Pest / Gods of the Plague / Criterion.Eclipse Series #39
Страна:Германия (ФРГ)
Студия: Antiteater-X-Film
Жанр: Драма, Криминал, Нео-нуар
Год выпуска: 1969
Продолжительность: 01:31:57
Производитель: Criterion
Перевод: Субтитры
Cубтитры: Английские, Русские, Русские-Dmitry_Yudaev
Оригинальная аудиодорожка: Немецкий
Премьера (мир): 4.04.1970
Режиссер: Райнер Вернер Фассбиндер / Rainer Werner Fassbinder
Продюсер: Райнер Вернер Фассбиндер, Михаэль ФенглерСценарий: Райнер Вернер ФассбиндерОператор: Дитрих ЛоманнКомпозитор: Пер РабенХудожник: Курт РаабМонтаж: Райнер Вернер Фассбиндер
В ролях: Ханна Шигулла, Маргарете фон Тротта, Харри Баэр, Гюнтер Кауфманн, Карла Эгерер, Ингрид Кавен, Жан Джордж, Лило Пемпайт, Marian Seidowsky, Micha Cochina
Описание: Выйдя из тюрьмы, главный герой Франц отправляется искать тех, кого он знал по прежней жизни. Но мирной жизни не получается. Когда кто-то убивает его брата, первый, кого начинает искать полиция — это Франц.

Награды и номинации

Немецкая премия «Золотая кинолента»
Доп. информация:Софт:PGCDemux (извлечение).
DVD-lab PRO 2, Subtitle Workshop (субтитры).
MuxMan (сборка). DvdReMakePro (финал).Исходник найден в сети.
Вторым потоком добавлены русские субтитры
Субтитры filolya и группа Феникс.Третьим потоком добавлены русские субтитры предоставленные Dmitry_Yudaev .Реавторинг Нордер.Огромное Спасибо Всем, без чьей помощи этот релиз не состоялся бы!Меню:Английский, статичное, неозвученное.

Сэмпл:http://multi-up.com/946407
Тип релиза:DVD5 (Custom)
Контейнер:DVD-Video
Видео:NTSC 4:3 (720x480) VBR, 7048 Кбит/сек, 23,976 кадра/сек
Аудио :Немецкий: AC3, 1 ch, 48,0 КГц, 384 Kbps (Оригинал)
Формат субтитров:prerendered (DVD/IDX+SUB)

Dvd Info

Title: Eclipse Series #39_GODS OF THE PLAGUE
Size: 4.32 Gb ( 4 529 874,00 KBytes ) - DVD-5
Enabled regions: 1, 2, 3, 4, 5, 6, 7, 8
VTS_01 :
Play Length: 00:00:00
Video: NTSC 4:3 (720x480) VBR
VTS_02 :
Play Length: 01:31:57
Video: NTSC 4:3 (720x480) VBR
Audio:
Deutsch, AC3, 1/0 (C) ch, 384 kbps, Delay 0 mSec
Subtitles:
English
Russian
Russian
VTS_03 :
Play Length: 00:00:20
Video: NTSC 4:3 (720x480) VBR
VTS_04 :
Play Length: 00:00:00
Video: NTSC 4:3 (720x480) VBR

MediaInfo

Общее
Полное имя : F:\Eclipse Series 39 Early Fassbinder (1969-1970)\Eclipse Series #39_GODS OF THE PLAGUE\VIDEO_TS\VTS_02_2.VOB
Формат : MPEG-PS
Размер файла : 1024 Мбайт
Продолжительность : 18 м.
Режим общего битрейта : Переменный
Общий поток : 7583 Кбит/сек
Видео
Идентификатор : 224 (0xE0)
Формат : MPEG Video
Версия формата : Version 2
Профиль формата : Main@Main
Параметр BVOP формата : Да
Параметр матрицы формата : Выборочная
Параметр GOP формата : Variable
Продолжительность : 18 м.
Вид битрейта : Переменный
Битрейт : 7048 Кбит/сек
Максимальный битрейт : 9800 Кбит/сек
Ширина : 720 пикселей
Высота : 480 пикселей
Соотношение сторон : 4:3
Частота кадров : 23,976 кадра/сек
Стандарт вещания : NTSC
Цветовое пространство : YUV
Субдискретизация насыщенности : 4:2:0
Битовая глубина : 8 бит
Тип развёртки : Прогрессивная
Порядок развёртки : 2:3 Pulldown
Метод сжатия : С потерями
Бит/(Пиксели*Кадры) : 0.851
Временной код первого кадра : 01:21:40:28
Оригинал временного кода : Group of pictures header
Размер потока : 952 Мбайт (93%)
Аудио
Идентификатор : 189 (0xBD)-128 (0x80)
Формат : AC-3
Формат/Информация : Audio Coding 3
Расширение режима : CM (complete main)
Параметр Endianness формата : Big
Режим смешивания : DVD-Video
Продолжительность : 18 м.
Вид битрейта : Постоянный
Битрейт : 384 Кбит/сек
Каналы : 1 канал
Расположение каналов : Front: C
Частота : 48,0 КГц
Битовая глубина : 16 бит
Метод сжатия : С потерями
Задержка видео : -471 мс.
Размер потока : 51,9 Мбайт (5%)
Текст #1
Идентификатор : 189 (0xBD)-33 (0x21)
Формат : RLE
Формат/Информация : Run-length encoding
Режим смешивания : DVD-Video
Продолжительность : 18 м.
Задержка видео : -184 мс.
Текст #2
Идентификатор : 189 (0xBD)-32 (0x20)
Формат : RLE
Формат/Информация : Run-length encoding
Режим смешивания : DVD-Video
Текст #3
Идентификатор : 189 (0xBD)-34 (0x22)
Формат : RLE
Формат/Информация : Run-length encoding
Режим смешивания : DVD-Video

Скриншоты меню

Скриншоты

[teatrix.ru].t7540.torrent 
Торрент: Зарегистрирован [ 2015-10-12 09:59 ] · 78EB503F2DC4A5B4E26A38E16218EDFACF36E38D

Скачать .torrent

Скачать

23 KB

Статус: проверено
Скачан: 0 раз
Размер: 4.32 GB
terms.php



Быстрый ответ

Имя:

      
Для отправки сообщений необходимо включить JavaScript
Показать сообщения:    

Текущее время: 11-Дек 13:02

Часовой пояс: UTC + 3


Вы можете начинать темы
Вы можете отвечать на сообщения
Вы не можете редактировать свои сообщения
Вы не можете удалять свои сообщения
Вы не можете голосовать в опросах
Вы не можете прикреплять файлы к сообщениям
Вы можете скачивать файлы