Предостережение святой блудницы / Beware of a Holy Whore (Райнер Вернер Фассбиндер / Rainer Werner Fassbinder) [1971, Германия (ФРГ), Италия, Драма, Комедия, DVD9 (Custom)] DVO + Sub Eng+ Original Ger / Criterion.Eclipse Series #39


Статистика раздачи [Обновить пиров]
Размер:  4.45 GB   |    Зарегистрирован:  1 год 1 месяц   |    Скачан:  0 раз

Полного источника не было: Никогда

 
   
 
 
 

[Цитировать]

Предостережение святой блудницы / Осторожно, святая шлюха! / Warnung vor einer heiligen Nutte / Beware of a Holy Whore / Criterion.Eclipse Series #39
Страна:Германия (ФРГ), Италия
Студия:Tango Film, Antiteater-X-Film, Nova International Films
Жанр: Драма, Комедия
Год выпуска:1971
Продолжительность:01:43:55
Производитель:Criterion
Перевод:Профессиональный (двухголосый закадровый)
Cубтитры:Английские
Оригинальная аудиодорожка:Немецкий
Премьера (мир):28.08.1971
Режиссер:Райнер Вернер Фассбиндер / Rainer Werner Fassbinder
Продюсер:Петер БерлингСценарий:Райнер Вернер ФассбиндерОператор:Михаэль БалльхаусКомпозитор:Пер РабенХудожник:Курт РаабМонтаж:Теа Эймеш, Райнер Вернер Фассбиндер
В ролях:Лу Кастель — Джефф, режиссер
Эдди Константин — камео
Маркард Бом — Рикки
Ханна Шигулла — Ханна
Райнер Вернер Фассбиндер — Саша
Маргарета фон Тротта — секретарь
Ханнес Фухс — Давид
Марчелла Микеланджели — Маргрет
Описание: Автобиографичное размышление о внезапных взаимодействиях и всё изменяющих связях, из которых состоит процесс создания фильма. Лента отчасти основана на впечатлениях от съемки «Уайти». Камера следит за съемочной группой и актерами, которые беспокойно шляются по роскошному испанскому отелю, ссорятся, пьют, занимаются любовью и «играют мускулами» в ожидании главной «звезды», денег на съемку и самого режиссера, который вернет их к творческой жизни. Что это за религия, которая связывает столь разных людей на время киносъемок? А может быть это всего лишь святая блудница, скрывающаяся под маской кинобожества?
Доп. информация:Софт:PGCDemux (извлечение).
BeSweet, Sony Vegas 9 (звук).
MuxMan (сборка). DvdReMakePro (финал).Исходник найден в сети.
Русский профессиональный (двухголосый)
Реавторинг Нордер.Огромное Спасибо Всем, без чьей помощи этот релиз не состоялся бы!Меню:Английский, статичное, неозвученное.

Сэмпл:http://multi-up.com/946091
Тип релиза:DVD9 (Custom)
Контейнер:DVD-Video
Видео:NTSC 4:3 (720x480) VBR, 5149 Кбит/сек, 23,976 кадра/сек
Аудио 1:Русский: AC3, 2 ch, 48,0 КГц, 224 Kbps, Профессиональный (двухголосый)
Аудио 2:Немецкий: AC3, 1 ch, 48,0 КГц, 384 Kbps (Оригинал)
Формат субтитров:prerendered (DVD/IDX+SUB)

Dvd Info

Title: Eclipse Series #39_BEWARE OF A HOLY WHORE
Size: 4.45 Gb ( 4 663 442,00 KBytes ) - DVD-9
Enabled regions: 1, 2, 3, 4, 5, 6, 7, 8
VTS_01 :
Play Length: 00:00:00
Video: NTSC 4:3 (720x480) VBR
VTS_02 :
Play Length: 01:43:55
Video: NTSC 4:3 (720x480) VBR
Audio:
Russian, AC3, 2/0 (L,R) ch, 224 kbps, Delay 0 mSec
Deutsch, AC3, 1/0 (C) ch, 384 kbps, Delay 0 mSec
Subtitles:
English
VTS_03 :
Play Length: 00:00:20
Video: NTSC 4:3 (720x480) VBR
VTS_04 :
Play Length: 00:00:00
Video: NTSC 4:3 (720x480) VBR

MediaInfo

Общее
Полное имя : F:\Eclipse Series 39 Early Fassbinder (1969-1970)\Eclipse Series #39_BEWARE OF A HOLY WHORE\VIDEO_TS\VTS_02_1.VOB
Формат : MPEG-PS
Размер файла : 1024 Мбайт
Продолжительность : 24 м.
Режим общего битрейта : Переменный
Общий поток : 5874 Кбит/сек
Видео
Идентификатор : 224 (0xE0)
Формат : MPEG Video
Версия формата : Version 2
Профиль формата : Main@Main
Параметр BVOP формата : Да
Параметр матрицы формата : Выборочная
Параметр GOP формата : Variable
Продолжительность : 24 м.
Вид битрейта : Переменный
Битрейт : 5149 Кбит/сек
Максимальный битрейт : 9800 Кбит/сек
Ширина : 720 пикселей
Высота : 480 пикселей
Соотношение сторон : 4:3
Частота кадров : 23,976 кадра/сек
Стандарт вещания : NTSC
Цветовое пространство : YUV
Субдискретизация насыщенности : 4:2:0
Битовая глубина : 8 бит
Тип развёртки : Прогрессивная
Порядок развёртки : 2:3 Pulldown
Метод сжатия : С потерями
Бит/(Пиксели*Кадры) : 0.621
Временной код первого кадра : 00:59:41:00
Оригинал временного кода : Group of pictures header
Размер потока : 898 Мбайт (88%)
Аудио #1
Идентификатор : 189 (0xBD)-128 (0x80)
Формат : AC-3
Формат/Информация : Audio Coding 3
Расширение режима : CM (complete main)
Параметр Endianness формата : Big
Режим смешивания : DVD-Video
Продолжительность : 24 м.
Вид битрейта : Постоянный
Битрейт : 224 Кбит/сек
Каналы : 2 канала
Расположение каналов : Front: L R
Частота : 48,0 КГц
Битовая глубина : 16 бит
Метод сжатия : С потерями
Размер потока : 39,0 Мбайт (4%)
Аудио #2
Идентификатор : 189 (0xBD)-129 (0x81)
Формат : AC-3
Формат/Информация : Audio Coding 3
Расширение режима : CM (complete main)
Параметр Endianness формата : Big
Режим смешивания : DVD-Video
Продолжительность : 24 м.
Вид битрейта : Постоянный
Битрейт : 384 Кбит/сек
Каналы : 1 канал
Расположение каналов : Front: C
Частота : 48,0 КГц
Битовая глубина : 16 бит
Метод сжатия : С потерями
Размер потока : 66,9 Мбайт (7%)
Текст
Идентификатор : 189 (0xBD)-32 (0x20)
Формат : RLE
Формат/Информация : Run-length encoding
Режим смешивания : DVD-Video

Скриншоты меню

Скриншоты

[teatrix.ru].t7541.torrent 
Торрент: Зарегистрирован [ 2015-10-12 09:59 ] · 62A281A75196F4C245769256DDCE9A5953D2181E

Скачать .torrent

Скачать

24 KB

Статус: проверено
Скачан: 0 раз
Размер: 4.45 GB
terms.php



Быстрый ответ

Имя:

      
Для отправки сообщений необходимо включить JavaScript
Показать сообщения:    

Текущее время: 10-Дек 09:59

Часовой пояс: UTC + 3


Вы можете начинать темы
Вы можете отвечать на сообщения
Вы не можете редактировать свои сообщения
Вы не можете удалять свои сообщения
Вы не можете голосовать в опросах
Вы не можете прикреплять файлы к сообщениям
Вы можете скачивать файлы