Антихрист / Antichrist (Ларс фон Триер / Lars von Trier) [2009, Дания, Германия, Франция, Швеция, Италия, Польша, Драма, Ужасы, 2х DVD9 (Custom)] [Criterion Collection #542] MVO + Sub Eng, Rus + Original Eng


Статистика раздачи [Обновить пиров]
Размер:  13.2 GB   |    Зарегистрирован:  1 год 1 месяц   |    Скачан:  0 раз

Полного источника не было: Никогда

 
   
 
 
 

[Цитировать]

Антихрист / Antichrist / Criterion Collection #542«When nature turns evil, true terror awaits.»

Страна: Дания, Германия, Франция, Швеция, Италия, Польша
Студия: arte, arte France Cinema, Canal+ [fr], CNC, Danmarks Radio (DR), Det Danske Filminstitut, Deutsche Filmforderfonds (DFFF), Film i Vast, Filmstiftung Nordrhein-Westfalen, Liberator Productions, Lucky Red, Memfis Film, Nordisk Film- & TV-Fond, Polski Instytut Sztuki Filmowej, Slot Machine, Svenska Filminstitutet (SFI), Sveriges Television (SVT), Trollhattan Film AB, ZDF/Arte, Zentropa Entertainments, Zentropa International Koln, Zentropa International Poland, Zweites Deutsches Fernsehen (ZDF)
Жанр: Драма, Ужасы
Год выпуска: 2009
Продолжительность: 01:48:46
Производитель: The Criterion Collection #542
Перевод: Профессиональный (многоголосый закадровый)
Cубтитры: Английские, Русские
Оригинальная аудиодорожка: Английский
Премьера (мир): 18.05.2009Премьера (РФ): 2.07.2009, «CP Classic»Релиз на DVD : 10.09.2009, «CP-Digital»Режиссер: Ларс фон Триер / Lars von Trier
Сценарий: Ларс фон Триер
Продюсер: Мета Луиза Фольдагер, Беттина Брокемпер, Реми БураОператор: Энтони Дод МэнтлКомпозитор: Кристиан Эйднс Андерсен
Художник: Карл Юлиуссон, Тим Пэннен, Фрауке Фирл
Монтаж: Аса Моссберг, Андерс Рефн
В ролях: Уиллем Дефо, Шарлотта Генсбур, Сторм Акеке Сальстрем
Описание:Немолодая пара теряет сына — двухлетний мальчик падает из окна, когда родители занимаются любовью. Чувство вины, буквально, сводит с ума мать ребенка, его отец — психотерапевт, пытается помочь жене и увозит ее в старый дом в лесной чаще.
Там герои фильма погружаются в мир странных символов, в их жизнь проникает безумие и насилие. Но даже самые чудовищные страдания мужчины и женщины не в силах притупить их раскаяние и душевную боль.

Это интересно

Главную женскую роль могла сыграть Ева Грин.
В сценах, где показываются женские и мужские половые органы, Уиллема Дефо и Шарлотту Генсбур подменяли настоящие порноактеры.
Съемки «Антихриста» были запланированы на 2005 год, но продюсер фильма Питер Аэлбск Дженсен закрыл проект. В 2007 году Ларс фон Триер впал в депрессию и заявил, что, может быть, никогда не снимет новый фильм.
Перед началом съемок Уиллем Дефо и Шарлотта Генсбур посмотрели «Зеркало» Тарковского. Также Дефо посмотрел триеровских «Идиотов», а Генсбур «Ночного портье», актриса внимательно изучала характер героини Шарлотты Рэмплинг.
В начале и конце фильма играет музыка Георга Фридриха Генделя.
Ларс фон Триер посвятил «Антихриста» своему любимому режиссеру Андрею Тарковскому.
Ссылка Wiki-http://ru.wikipedia.org/wiki/%D0%90%D0%BD%D1%82%D0%...%BB%D1%8C%D0%BC)

Доп. информация: Софт:
PGCDemux (извлечение).
BeSweet, Sony Vegas 9 (звук).
DVD-lab PRO 2, Subtitle Workshop (субтитры).
MuxMan (сборка). DvdReMakePro (финал).Исходник найден в сети .Звуковая дорожка и субтитры найдены в сети.Русская звуковая дорожка AC3, 6 ch перекодированна в AC3, 2 ch. (изначально была дутая).Информационная поддержка leoferre24 .Реавторинг Нордер.
Огромное Спасибо Всем, без чьей помощи этот релиз не состоялся бы!Бонусы:(Без перевода):Диск 1:Трансфер высокого разрешения, подготовленный при участии Ларса фон Триера и оператора Энтони Дод Ментла.Аудиокомментарий Триера и историка кино Мюррея Смита.Диск 2:Видеоинтервью Триера, Дефо и Генсбур. Хроника съемочного процесса: видео с участием Триера и основных исполнителей, архивные материалы."Канны - Царство Хаоса" - документальный фильм о премьере "Антихриста" (с участием Дефо и Генсбур).Трейлеры.ПЛЮС: Эссе историка кино Яна Кристи.Рейтинг MPAA : Рейтинг R - Детям до 17 лет обязательно присутствие родителей
Меню: Английский, анимированное, озвученное
Сэмпл: http://multi-up.com/927674
Тип релиза:2-DVD9 (Custom) - BDRemux 1080p - BDRip
Контейнер: DVD-Video
Видео: NTSC 16:9 (720x480) VBR, Auto Letterboxed, 6447 Кбит/сек, 23,976 кадра/сек
Аудио 1: Русский: AC3, 2/0 (L,R) ch,48.0 KHz, 192 kbps
Аудио 2: Английский: AC3, 2/0 (L,R) ch,48.0 KHz, 192 kbps (Комментарии Ларс фон Триера и Энтони Дод Ментла )
Аудио 3: Английский: AC3, 3/2 (L,R) ch,48.0 KHz, 448 kbps (Оригинал)
Формат субтитров: prerendered (DVD/IDX+SUB)

Dvd Info- Диск 1

Title: Disk 1
Size: 6.18 Gb ( 6 475 482,00 KBytes ) - DVD-9
Enabled regions: 1, 2, 3, 4, 5, 6, 7, 8
VTS_01 :
Play Length: 00:00:00
Video: NTSC 16:9 (720x480) VBR, Auto Letterboxed
VTS_02 :
Play Length: 01:48:46
Video: NTSC 16:9 (720x480) VBR, Auto Letterboxed
Audio:
Russian, AC3, 2/0 (L,R) ch, 192 kbps, Delay 0 mSec
English, AC3, 2/0 (L,R) ch, 192 kbps, Delay 0 mSec
English, AC3, 3/2 (L,C,R,SL,SR)+LFE ch, 448 kbps, Delay 0 mSec
Subtitles:
English
Russian
VTS_03 :
Play Length: 00:00:20
Video: NTSC 16:9 (720x480) VBR, Auto Pan&Scan
VTS_04 :
Play Length: 00:02:03
Video: NTSC 16:9 (720x480) VBR, Auto Letterboxed
Audio:
English, AC3, 3/2 (L,C,R,SL,SR)+LFE ch, 448 kbps, Delay 0 mSec
VTS_05 :
Play Length: 00:02:03
Video: NTSC 16:9 (720x480) VBR, Auto Letterboxed
Audio:
English, AC3, 3/2 (L,C,R,SL,SR)+LFE ch, 448 kbps, Delay 0 mSec
VTS_06 :
Play Length: 00:02:07
Video: NTSC 16:9 (720x480) VBR, Auto Letterboxed
Audio:
English, AC3, 3/2 (L,C,R,SL,SR)+LFE ch, 448 kbps, Delay 0 mSec
VTS_07 :
Play Length: 00:00:00
Video: NTSC 4:3 (720x480) VBR

Dvd Info- Диск 1(ИСХОДНИК)

Title: Disk 1
Size: 6.03 Gb ( 6 318 156,00 KBytes ) - DVD-9
Enabled regions: 1, 2, 3, 4, 5, 6, 7, 8
VTS_01 :
Play Length: 00:00:00
Video: NTSC 16:9 (720x480) VBR, Auto Letterboxed
VTS_02 :
Play Length: 01:48:45
Video: NTSC 16:9 (720x480) VBR, Auto Letterboxed
Audio:
English, AC3, 3/2 (L,C,R,SL,SR)+LFE ch, 448 kbps, Delay 0 mSec
English, AC3, 2/0 (L,R) ch, 192 kbps, Delay 0 mSec
Subtitles:
English
VTS_03 :
Play Length: 00:00:20
Video: NTSC 16:9 (720x480) VBR, Auto Pan&Scan
VTS_04 :
Play Length: 00:02:03
Video: NTSC 16:9 (720x480) VBR, Auto Letterboxed
Audio:
English, AC3, 3/2 (L,C,R,SL,SR)+LFE ch, 448 kbps, Delay 0 mSec
VTS_05 :
Play Length: 00:02:03
Video: NTSC 16:9 (720x480) VBR, Auto Letterboxed
Audio:
English, AC3, 3/2 (L,C,R,SL,SR)+LFE ch, 448 kbps, Delay 0 mSec
VTS_06 :
Play Length: 00:02:07
Video: NTSC 16:9 (720x480) VBR, Auto Letterboxed
Audio:
English, AC3, 3/2 (L,C,R,SL,SR)+LFE ch, 448 kbps, Delay 0 mSec
VTS_07 :
Play Length: 00:00:00
Video: NTSC 4:3 (720x480) VBR

Dvd Info- Диск 2(Бонусы)

Title: Disk 2
Size: 7.03 Gb ( 7 367 962,00 KBytes ) - DVD-9
Enabled regions: 1, 2, 3, 4, 5, 6, 7, 8
VTS_01 :
Play Length: 00:00:00
Video: NTSC 16:9 (720x480) VBR, Auto Letterboxed
VTS_02 :
Play Length: 00:04:57
Video: NTSC 16:9 (720x480) VBR, Auto Letterboxed
Audio:
English (Dolby AC3, 2 ch)
VTS_03 :
Play Length: 00:18:13
Video: NTSC 16:9 (720x480) VBR, Auto Letterboxed
Audio:
English (Dolby AC3, 2 ch)
VTS_04 :
Play Length: 00:06:32
Video: NTSC 16:9 (720x480) VBR, Auto Letterboxed
Audio:
Dansk (Dolby AC3, 2 ch)
Subtitles:
English
VTS_05 :
Play Length: 00:15:31
Video: NTSC 16:9 (720x480) VBR, Auto Letterboxed
Audio:
English (Dolby AC3, 2 ch)
Subtitles:
English
VTS_06 :
Play Length: 00:13:00
Video: NTSC 16:9 (720x480) VBR, Auto Letterboxed
Audio:
Dansk (Dolby AC3, 2 ch)
Subtitles:
English
VTS_07 :
Play Length: 00:05:12
Video: NTSC 16:9 (720x480) VBR, Auto Letterboxed
Audio:
English (Dolby AC3, 2 ch)
VTS_08 :
Play Length: 00:08:13
Video: NTSC 16:9 (720x480) VBR, Auto Letterboxed
Audio:
English (Dolby AC3, 2 ch)
VTS_09 :
Play Length: 00:08:06
Video: NTSC 16:9 (720x480) VBR, Auto Letterboxed
Audio:
English (Dolby AC3, 2 ch)
VTS_10 :
Play Length: 00:07:42
Video: NTSC 16:9 (720x480) VBR, Auto Letterboxed
Audio:
English (Dolby AC3, 2 ch)
VTS_11 :
Play Length: 00:07:22
Video: NTSC 16:9 (720x480) VBR, Auto Letterboxed
Audio:
English (Dolby AC3, 2 ch)
Subtitles:
English
VTS_12 :
Play Length: 00:06:18
Video: NTSC 16:9 (720x480) VBR, Auto Letterboxed
Audio:
English (Dolby AC3, 2 ch)
VTS_13 :
Play Length: 00:08:05
Video: NTSC 16:9 (720x480) VBR, Auto Letterboxed
Audio:
English (Dolby AC3, 2 ch)
VTS_14 :
Play Length: 00:43:52
Video: NTSC 16:9 (720x480) VBR, Auto Letterboxed
Audio:
Francais (Dolby AC3, 2 ch)
Subtitles:
English
VTS_15 :
Play Length: 00:00:00
Video: NTSC 4:3 (720x480) VBR

MediaInfo- Диск 1

Общее
Полное имя : F:\Antichrist 2DVDх9_Custom_Criterion_#542\Disk 1\VIDEO_TS\VTS_02_2.VOB
Формат : MPEG-PS
Размер файла : 1024 Мбайт
Продолжительность : 19 м.
Режим общего битрейта : Переменный
Общий поток : 7427 Кбит/сек
Видео
Идентификатор : 224 (0xE0)
Формат : MPEG Video
Версия формата : Version 2
Профиль формата : Main@Main
Параметр BVOP формата : Да
Параметр матрицы формата : Выборочная
Параметр GOP формата : M=3, N=12
Продолжительность : 19 м.
Вид битрейта : Переменный
Битрейт : 6447 Кбит/сек
Максимальный битрейт : 9140 Кбит/сек
Ширина : 720 пикселей
Высота : 480 пикселей
Соотношение сторон : 16:9
Частота кадров : 23,976 кадра/сек
Стандарт вещания : NTSC
Цветовое пространство : YUV
Субдискретизация насыщенности : 4:2:0
Битовая глубина : 8 бит
Тип развёртки : Прогрессивная
Порядок развёртки : 2:3 Pulldown
Метод сжатия : С потерями
Бит/(Пиксели*Кадры) : 0.778
Временной код первого кадра : 10:18:55:10
Оригинал временного кода : Group of pictures header
Размер потока : 889 Мбайт (87%)
Аудио #1
Идентификатор : 189 (0xBD)-128 (0x80)
Формат : AC-3
Формат/Информация : Audio Coding 3
Расширение режима : CM (complete main)
Параметр Endianness формата : Big
Режим смешивания : DVD-Video
Продолжительность : 19 м.
Вид битрейта : Постоянный
Битрейт : 192 Кбит/сек
Каналы : 2 канала
Расположение каналов : Front: L R
Частота : 48,0 КГц
Битовая глубина : 16 бит
Метод сжатия : С потерями
Задержка видео : -462 мс.
Размер потока : 26,5 Мбайт (3%)
Аудио #2
Идентификатор : 189 (0xBD)-129 (0x81)
Формат : AC-3
Формат/Информация : Audio Coding 3
Расширение режима : CM (complete main)
Параметр Endianness формата : Big
Режим смешивания : DVD-Video
Продолжительность : 19 м.
Вид битрейта : Постоянный
Битрейт : 192 Кбит/сек
Каналы : 2 канала
Расположение каналов : Front: L R
Частота : 48,0 КГц
Битовая глубина : 16 бит
Метод сжатия : С потерями
Задержка видео : -462 мс.
Размер потока : 26,5 Мбайт (3%)
Аудио #3
Идентификатор : 189 (0xBD)-130 (0x82)
Формат : AC-3
Формат/Информация : Audio Coding 3
Расширение режима : CM (complete main)
Параметр Endianness формата : Big
Режим смешивания : DVD-Video
Продолжительность : 19 м.
Вид битрейта : Постоянный
Битрейт : 448 Кбит/сек
Каналы : 6 каналов
Расположение каналов : Front: L C R, Side: L R, LFE
Частота : 48,0 КГц
Битовая глубина : 16 бит
Метод сжатия : С потерями
Задержка видео : -526 мс.
Размер потока : 61,8 Мбайт (6%)
Текст #1
Идентификатор : 189 (0xBD)-32 (0x20)
Формат : RLE
Формат/Информация : Run-length encoding
Режим смешивания : DVD-Video
Задержка видео : -251 мс.
Текст #2
Идентификатор : 189 (0xBD)-33 (0x21)
Формат : RLE
Формат/Информация : Run-length encoding
Режим смешивания : DVD-Video
Задержка видео : -251 мс.
Текст #3
Идентификатор : 189 (0xBD)-34 (0x22)
Формат : RLE
Формат/Информация : Run-length encoding
Режим смешивания : DVD-Video
Задержка видео : 617 мс.

MediaInfo- Диск 1(Исходник)

Общее
Полное имя : C:\CRITERION COLLECTION №542 .Антихрист\Disk 1\VIDEO_TS\VTS_02_1.VOB
Формат : MPEG-PS
Размер файла : 1024 Мбайт
Продолжительность : 19 м.
Режим общего битрейта : Переменный
Общий поток : 7215 Кбит/сек
Видео
Идентификатор : 224 (0xE0)
Формат : MPEG Video
Версия формата : Version 2
Профиль формата : Main@Main
Параметр BVOP формата : Да
Параметр матрицы формата : Выборочная
Параметр GOP формата : M=3, N=12
Продолжительность : 19 м.
Вид битрейта : Переменный
Битрейт : 6432 Кбит/сек
Максимальный битрейт : 9140 Кбит/сек
Ширина : 720 пикселей
Высота : 480 пикселей
Соотношение сторон : 16:9
Частота кадров : 29,970 кадров/сек
Стандарт вещания : NTSC
Цветовое пространство : YUV
Субдискретизация насыщенности : 4:2:0
Битовая глубина : 8 бит
Метод сжатия : С потерями
Бит/(Пиксели*Кадры) : 0.621
Временной код первого кадра : 09:59:38:00
Оригинал временного кода : Group of pictures header
Размер потока : 913 Мбайт (89%)
Аудио #1
Идентификатор : 189 (0xBD)-128 (0x80)
Формат : AC-3
Формат/Информация : Audio Coding 3
Расширение режима : CM (complete main)
Параметр Endianness формата : Big
Режим смешивания : DVD-Video
Продолжительность : 19 м.
Вид битрейта : Постоянный
Битрейт : 448 Кбит/сек
Каналы : 6 каналов
Расположение каналов : Front: L C R, Side: L R, LFE
Частота : 48,0 КГц
Битовая глубина : 16 бит
Метод сжатия : С потерями
Размер потока : 63,6 Мбайт (6%)
Аудио #2
Идентификатор : 189 (0xBD)-129 (0x81)
Формат : AC-3
Формат/Информация : Audio Coding 3
Расширение режима : CM (complete main)
Параметр Endianness формата : Big
Режим смешивания : DVD-Video
Продолжительность : 19 м.
Вид битрейта : Постоянный
Битрейт : 192 Кбит/сек
Каналы : 2 канала
Расположение каналов : Front: L R
Частота : 48,0 КГц
Битовая глубина : 16 бит
Метод сжатия : С потерями
Размер потока : 27,2 Мбайт (3%)
Текст #1
Идентификатор : 189 (0xBD)-32 (0x20)
Формат : RLE
Формат/Информация : Run-length encoding
Режим смешивания : DVD-Video
Текст #2
Идентификатор : 189 (0xBD)-33 (0x21)
Формат : RLE
Формат/Информация : Run-length encoding
Режим смешивания : DVD-Video

MediaInfo- Диск 2

Общее
Полное имя : F:\Antichrist 2DVDх9_Custom_Criterion_#542\Disk 2\VIDEO_TS\VTS_14_2.VOB
Формат : MPEG-PS
Размер файла : 1019 Мбайт
Продолжительность : 21 м.
Режим общего битрейта : Переменный
Общий поток : 6736 Кбит/сек
Видео
Идентификатор : 224 (0xE0)
Формат : MPEG Video
Версия формата : Version 2
Профиль формата : Main@Main
Параметр BVOP формата : Да
Параметр матрицы формата : Выборочная
Параметр GOP формата : M=3, N=15
Продолжительность : 21 м.
Вид битрейта : Переменный
Битрейт : 6410 Кбит/сек
Максимальный битрейт : 9600 Кбит/сек
Ширина : 720 пикселей
Высота : 480 пикселей
Соотношение сторон : 16:9
Частота кадров : 29,970 кадров/сек
Стандарт вещания : NTSC
Цветовое пространство : YUV
Субдискретизация насыщенности : 4:2:0
Битовая глубина : 8 бит
Тип развёртки : Чересстрочная
Порядок развёртки : Верхнее поле первое
Метод сжатия : С потерями
Бит/(Пиксели*Кадры) : 0.619
Временной код первого кадра : 01:22:45:06
Оригинал временного кода : Group of pictures header
Размер потока : 969 Мбайт (95%)
Аудио
Идентификатор : 189 (0xBD)-128 (0x80)
Формат : AC-3
Формат/Информация : Audio Coding 3
Профиль формата : Dolby Digital
Расширение режима : CM (complete main)
Параметр Endianness формата : Big
Режим смешивания : DVD-Video
Продолжительность : 21 м.
Вид битрейта : Постоянный
Битрейт : 192 Кбит/сек
Каналы : 2 канала
Расположение каналов : Front: L R
Частота : 48,0 КГц
Битовая глубина : 16 бит
Метод сжатия : С потерями
Задержка видео : -519 мс.
Размер потока : 29,0 Мбайт (3%)
Текст #1
Идентификатор : 189 (0xBD)-32 (0x20)
Формат : RLE
Формат/Информация : Run-length encoding
Режим смешивания : DVD-Video
Задержка видео : 801 мс.
Текст #2
Идентификатор : 189 (0xBD)-33 (0x21)
Формат : RLE
Формат/Информация : Run-length encoding
Режим смешивания : DVD-Video
Задержка видео : 801 мс.

Скриншоты меню-Диск 1

Скриншоты фильма-Диск 1

Скриншоты доп. материалов-Диск 1

Скриншоты меню-Диск 2

Скриншоты доп.материалов-Диск 2

Полиграфия+Буклет

Буклет-http://multi-up.com/927973
[teatrix.ru].t7552.torrent 
Торрент: Зарегистрирован [ 2015-10-12 09:59 ] · AC17899AD92D0DFF68AB4ACAB7AD1F5BB37080C6

Скачать .torrent

Скачать

72 KB

Статус: проверено
Скачан: 0 раз
Размер: 13.2 GB
terms.php



Быстрый ответ

Имя:

      
Для отправки сообщений необходимо включить JavaScript
Показать сообщения:    

Текущее время: 06-Дек 22:53

Часовой пояс: UTC + 3


Вы можете начинать темы
Вы можете отвечать на сообщения
Вы не можете редактировать свои сообщения
Вы не можете удалять свои сообщения
Вы не можете голосовать в опросах
Вы не можете прикреплять файлы к сообщениям
Вы можете скачивать файлы