Мелкий снег / Sasame Yuki / The Makioka Sisters (Кон Итикава / Kon Ichikawa) [1983, Япония, Драма, DVD9 (Custom)] Sub Rus, Eng+Original Jap / Criterion Collection#567


Статистика раздачи [Обновить пиров]
Размер:  7.57 GB   |    Зарегистрирован:  1 год 1 месяц   |    Скачан:  0 раз

Полного источника не было: Никогда

 
   
 
 
 

[Цитировать]

Мелкий снег / Sasame Yuki / The Makioka Sisters / Criterion Collection#567 Страна: Япония
Студия: Toho Eizo Co
Жанр: Драма
Год выпуска:1983
Продолжительность:02:20:17
Производитель: The Criterion Collection #567
Перевод : Субтитры дед_сто_летCубтитры: Английский, Русские дед_сто_летОригинальная аудиодорожка:Японский
Премьера (мир): 21.05.1983
Режиссер: Кон Итикава / Kon Ichikawa
Сценарий: Шиня Хидака, Кон Итикава, Дзюнъитиро Танидзаки
Продюсер: Кон Итикава, Томоюки Танака
Оператор: Киёси ХасегаваКомпозитор: Синносуке Окава, Тошиюки ВатанабэХудожник: Шинобу МуракиМонтаж: Тидзуко ОсадаВ ролях: Кэйко Киси, Ёсико Сакума, Саюри Ёсинага, Юко Котэгава, Дзюдзо Итами, Кодзи Исидзака, Тошиюки Хосокава, Иттоку Кисибэ, Такенори Эмото, Дзюн ХамамураОписание: Жизнь четырёх сестёр из знатной семьи Макиока лишена внешнего блеска и полна повседневных житейских забот. Старшая из них – Цуруко (Кейко Киши), замужем, имеет шестерых детей и живёт в Токио, где по праву старшинства держит «главный дом», в который, по её мнению, обязаны переехать младшие незамужние Юкико и Таэко. Вторая сестра Сатико (Ёшико Сакума) тоже замужем, живёт с дочерью и сёстрами в Асии. Вежливая молчаливая Юкико (Саюри Ёсинага), воспитывающая племянницу, не спешит ни замуж, ни в гости к Цуруко. Младшая, Таэко (Юко Котэгава) запятнавшая честь семьи неоднократными связями с мужчинами, самостоятельна и романтична…
Драма «Мелкий снег», снятая по нашумевшему роману Дзюнитиро Танидзаки о важности семейных ценностей в жизни послевоенной Японии, отличается удивительной утончённой красотой.
Доп. информация:Софт:
PGCDemux (извлечение).
DVD-lab PRO 2, Subtitle Workshop (субтитры).
MuxMan (сборка). DvdReMakePro (финал).
Исходник найден в сети .
Реавторинг Нордер.Огромное Спасибо Всем, без чьей помощи этот релиз не состоялся бы!Бонусы:(Без перевода):Трейлер.Меню: Английский, статичное, неозвученное
Сэмпл: http://multi-up.com/936622
Тип релиза:DVD9 (Custom) - Скачать BDRemux 1080p (34,94 GB )
Контейнер: DVD-Video
Видео : NTSC 16:9 (720x480) VBR, Auto Letterboxed, 6783 Кбит/сек, 23,976 кадра/сек
Аудио : Японский: AC3, 1/0ch, 48.0 KHz, 384 Кбит/сек (Оригинал)
Формат субтитров: prerendered (DVD/IDX+SUB)

Награды и номинации[b][url=http://www.imdb.com/title/tt0086242/awards?ref_=tt_awd]http://www.imdb.com/title/tt0086242/awards?ref_=tt_awd[/url][/b]Dvd Info

Title: The Makioka Sisters DVD-9_Custom_Criterion_#567
Size: 7.57 Gb ( 7 939 632,00 KBytes ) - DVD-9
Enabled regions: 1, 2, 3, 4, 5, 6, 7, 8
VTS_01 :
Play Length: 00:00:00
Video: NTSC 16:9 (720x480) VBR, Auto Letterboxed
VTS_02 :
Play Length: 00:01:52
Video: NTSC 16:9 (720x480) VBR, Auto Letterboxed
Audio:
Japanese, AC3, 1/0 (C) ch, 192 kbps, Delay 0 mSec
Subtitles:
English
VTS_03 :
Play Length: 02:20:17
Video: NTSC 16:9 (720x480) VBR, Auto Letterboxed
Audio:
Japanese, AC3, 1/0 (C) ch, 384 kbps, Delay 0 mSec
Subtitles:
English
Russian
VTS_04 :
Play Length: 00:00:20
Video: NTSC 16:9 (720x480) VBR, Auto Pan&Scan
VTS_05 :
Play Length: 00:00:00
Video: NTSC 4:3 (720x480) VBR

MediaInfo

Общее
Полное имя : F:\The Makioka Sisters DVD-9_Custom_Criterion_#567\VIDEO_TS\VTS_03_1.VOB
Формат : MPEG-PS
Размер файла : 1024 Мбайт
Продолжительность : 19 м.
Режим общего битрейта : Переменный
Общий поток : 7312 Кбит/сек
Видео
Идентификатор : 224 (0xE0)
Формат : MPEG Video
Версия формата : Version 2
Профиль формата : Main@Main
Параметр BVOP формата : Да
Параметр матрицы формата : Выборочная
Параметр GOP формата : Variable
Продолжительность : 19 м.
Вид битрейта : Переменный
Битрейт : 6783 Кбит/сек
Максимальный битрейт : 9800 Кбит/сек
Ширина : 720 пикселей
Высота : 480 пикселей
Соотношение сторон : 16:9
Частота кадров : 23,976 кадра/сек
Стандарт вещания : NTSC
Цветовое пространство : YUV
Субдискретизация насыщенности : 4:2:0
Битовая глубина : 8 бит
Тип развёртки : Прогрессивная
Порядок развёртки : 2:3 Pulldown
Метод сжатия : С потерями
Бит/(Пиксели*Кадры) : 0.819
Временной код первого кадра : 00:59:40:00
Оригинал временного кода : Group of pictures header
Размер потока : 950 Мбайт (93%)
Аудио
Идентификатор : 189 (0xBD)-128 (0x80)
Формат : AC-3
Формат/Информация : Audio Coding 3
Расширение режима : CM (complete main)
Параметр Endianness формата : Big
Режим смешивания : DVD-Video
Продолжительность : 19 м.
Вид битрейта : Постоянный
Битрейт : 384 Кбит/сек
Каналы : 1 канал
Расположение каналов : Front: C
Частота : 48,0 КГц
Битовая глубина : 16 бит
Метод сжатия : С потерями
Размер потока : 53,8 Мбайт (5%)
Текст #1
Идентификатор : 189 (0xBD)-32 (0x20)
Формат : RLE
Формат/Информация : Run-length encoding
Режим смешивания : DVD-Video
Текст #2
Идентификатор : 189 (0xBD)-33 (0x21)
Формат : RLE
Формат/Информация : Run-length encoding
Режим смешивания : DVD-Video
Текст #3
Идентификатор : 189 (0xBD)-34 (0x22)
Формат : RLE
Формат/Информация : Run-length encoding
Режим смешивания : DVD-Video

Скриншоты меню

Скриншоты

Скриншоты доп. материалов

Полиграфия

[teatrix.ru].t7566.torrent 
Торрент: Зарегистрирован [ 2015-10-12 09:59 ] · E9F0986EFD97577BD010B90391821278C7FF87B6

Скачать .torrent

Скачать

40 KB

Статус: проверено
Скачан: 0 раз
Размер: 7.57 GB
terms.php



Быстрый ответ

Имя:

      
Для отправки сообщений необходимо включить JavaScript
Показать сообщения:    

Текущее время: 10-Дек 17:45

Часовой пояс: UTC + 3


Вы можете начинать темы
Вы можете отвечать на сообщения
Вы не можете редактировать свои сообщения
Вы не можете удалять свои сообщения
Вы не можете голосовать в опросах
Вы не можете прикреплять файлы к сообщениям
Вы можете скачивать файлы