Кус-Кус и Барабулька / La graine et le mulet / The Secret of the Grain (Абделатиф Кешиш / Abdellatif Kechiche) [2007, Франция, Драма, DVD9 (Custom) + DVD9] MVO + Original Fre / Criterion Collection#527


Статистика раздачи [Обновить пиров]
Размер:  15.52 GB   |    Зарегистрирован:  1 год 1 месяц   |    Скачан:  0 раз

Полного источника не было: Никогда

 
   
 
 
 

[Цитировать]

Кус-Кус и Барабулька / La graine et le mulet / The Secret of the Grain / Criterion Collection#527«The Best French Film of the Year»
Страна:Франция
Студия:Cine Cinemas, France 2 Cinema, Hirsch, Pathe Renn Productions.
Жанр:Драма
Год выпуска:2007
Продолжительность:02:34:24
Производитель:The Criterion Collection #527
Перевод:Профессиональный (многоголосый закадровый)
Cубтитры:Нет
Оригинальная аудиодорожка:Французский
Премьера (мир):3.09.2007
Режиссер:Абделатиф Кешиш / Abdellatif Kechiche
В ролях:Хабиб Буфар-Слиман Бейжи
Афсия Эрзи-Рум
Фарида Бенкеташ-Карима
Абдельхамид Актуш -Хамид
Бурауя Марзук-Суад
Алис Ури-Джулия
Лейла Д'Иссернио-Лилия
Абелькадер Желулли-Кадер
Оливье Лусто-Хосе
Сабрина Уазани-Ольфа
Описание: Именно кус-кус с превеликим энтузиазмом поедают герои фильма, облизывая жирные пальцы. А потом открывают ресторан с этим фирменным блюдом, что позволяет и решить экономические проблемы, и наладить мир в большой семье, даже помирить двух жен главного героя. Режиссер Абделатиф Кешиш погружает зрителя в мир арабской субкультуры, становящейся одной из главных во Франции.
Французский город Сет, портовый город.
Господин Бейжи, усталый человек шестидесяти лет, продолжает через силу трудиться на верфи, выполняя работу, которая с течением лет стала для него все более мучительной. Разведенный глава семьи, он отчаянно пытается сохранить близость с теми, кого любит, — задача тем более тяжелая, что семья распалась и отношения наполнены скрытым напряжением, которое готово выплеснуться наружу и которое усугубляют финансовые проблемы. В этот непростой период жизни, похоже, все усиливает его чувство собственной бесполезности. Он нес ношу того, что считает своей неудачей долгое время, и думает только о том, чтобы преодолеть ее, основав собственное дело — ресторан. Но это будет нелегко. Его доход мал и непостоянен, и далеко не тот, какой потребуется, чтобы реализовать его честолюбивый план. Это не мешает ему мечтать, говорить об этом плане — главным образом с членами своей семьи. Мало-помалу семья сплачивается вокруг этого плана, который в итоге обретает символическое значение поисков лучшей жизни. Благодаря энергии и усердному труду, мечта сбудется... Почти сбудется... (arthouse.ru)
Доп. информация:Диск 1 предоставил Нордер.Диск 2 найден в сети.Английские субтитры удаленны из за превышения размера.Реавторинг Нордер.Огромное Спасибо Всем, без чьей помощи этот релиз не состоялся бы!Продюсер:Клод Берри, Пьер Грюнштейн, Натали РеймсСценарий:Абделатиф КешишОператор:Любомир БакчевХудожник:Бенуа Бару, Кристоф Кузон, Мария Белосо-ХоллМонтаж:Галия Лакруа, Камиль Тубкис
Кешиш, Абделлатиф-https://ru.wikipedia.org/wiki/Кешиш,_Абделлатиф Фильм-https://ru.wikipedia.org/wiki/Кус-кус_и_барабулькаНаграды и номинации">

Это интересноКешиш, Абделлатиф-https://ru.wikipedia.org/wiki/Кешиш,_Абделлатиф Фильм-https://ru.wikipedia.org/wiki/Кус-кус_и_барабулькаНаграды и номинации



Рецензия

Софт

PGCDemux (извлечение).
BeSweet, Sony Vegas 9 (звук).
MuxMan (сборка). DvdReMakePro (финал).

Бонусы:(Без перевода)

Disc Two:
--New video interview with Kechiche
--Sueur, Kechiche’s extended reedit of the climactic belly-dancing sequence, featuring a new video introduction by the director
--New video interview with film scholar Ludovic Cortade
--Excerpt from a 20 heures television interview with Kechiche and actress Hafsia Herzi
--Video interviews with Herzi, actress Bouraouia Marzouk, and the film’s musicians
--Theatrical trailer
--New and improved English subtitle translation
--PLUS: A booklet featuring a new essay by film critic Wesley Morris
Меню:Английский, статичное, озвученное.Сэмпл Диск 1:https://www.sendspace.com/file/3484gfСэмпл Диск 2:https://www.sendspace.com/file/bx0mm0Тип релиза:DVDх9(Custom)+DVDх9
Контейнер:DVD-Video
Видео:NTSC 16:9 (720x480) VBR, Auto Letterboxed, 6377 Кбит/сек, 29,970 кадров/сек
Аудио 1:Русский:AC3, 6 ch, 48.0 KHz, 384 Кбит/сек / Профессиональный (многоголосый, закадровый)Аудио 2:Английский:AC3, 6 ch, 48.0 KHz, 384 Кбит/сек / ОригиналФормат субтитров: prerendered (DVD/IDX+SUB)

Dvd Info- Диск 1

Title: Диск 1
Size: 7.96 Gb ( 8 342 082,00 KBytes ) - DVD-9
Enabled regions: 1, 2, 3, 4, 5, 6, 7, 8
VTS_01 :
Play Length: 00:00:00
Video: NTSC 16:9 (720x480) VBR, Auto Letterboxed
VTS_02 :
Play Length: 02:34:24
Video: NTSC 16:9 (720x480) VBR, Auto Letterboxed
Audio:
Russian (Dolby AC3, 6 ch)
Francais (Dolby AC3, 6 ch)
VTS_03 :
Play Length: 00:00:01
Video: NTSC 16:9 (720x480) VBR, Auto Pan&Scan
VTS_04 :
Play Length: 00:00:00
Video: NTSC 4:3 (720x480) VBR

Dvd Info- Диск 2

Title: Диск 2
Size: 7.56 Gb ( 7 927 490,00 KBytes ) - DVD-9
Enabled regions: 1, 2, 3, 4, 5, 6, 7, 8
VTS_01 :
Play Length: 00:00:00
Video: NTSC 16:9 (720x480) VBR, Auto Letterboxed
VTS_02 :
Play Length: 00:45:09
Video: NTSC 16:9 (720x480) VBR, Auto Letterboxed
Audio:
Francais (Dolby AC3, 2 ch)
Subtitles:
English
VTS_03 :
Play Length: 00:21:08
Video: NTSC 16:9 (720x480) VBR, Auto Letterboxed
Audio:
English (Dolby AC3, 2 ch)
Subtitles:
English
VTS_04 :
Play Length: 00:01:41
Video: NTSC 16:9 (720x480) VBR, Auto Letterboxed
Audio:
Francais (Dolby AC3, 2 ch)
Subtitles:
English
VTS_05 :
Play Length: 00:02:18
Video: NTSC 16:9 (720x480) VBR, Auto Letterboxed
Audio:
Francais (Dolby AC3, 2 ch)
Subtitles:
English
VTS_06 :
Play Length: 00:07:51
Video: NTSC 4:3 (720x480) VBR
Audio:
Francais (Dolby AC3, 2 ch)
Subtitles:
English
VTS_07 :
Play Length: 00:11:02
Video: NTSC 16:9 (720x480) VBR, Auto Letterboxed
Audio:
Francais (Dolby AC3, 2 ch)
Subtitles:
English
VTS_08 :
Play Length: 00:14:41
Video: NTSC 16:9 (720x480) VBR, Auto Letterboxed
Audio:
Francais (Dolby AC3, 2 ch)
Subtitles:
English
VTS_09 :
Play Length: 00:12:47
Video: NTSC 16:9 (720x480) VBR, Auto Letterboxed
Audio:
Francais (Dolby AC3, 2 ch)
Subtitles:
English
VTS_10 :
Play Length: 00:15:17
Video: NTSC 16:9 (720x480) VBR, Auto Letterboxed
Audio:
Francais (Dolby AC3, 2 ch)
Subtitles:
English
VTS_11 :
Play Length: 00:00:00
Video: NTSC 4:3 (720x480) VBR

MediaInfo- Диск 1

Общее
Полное имя : F:\The Secret of the Grain DVD-9_Custom +DVD-9 _Criterion#527\Диск 1\VIDEO_TS\VTS_02_1.VOB
Формат : MPEG-PS
Размер файла : 1024 Мбайт
Продолжительность : 19 м.
Режим общего битрейта : Переменный
Общий поток : 7290 Кбит/сек
Видео
Идентификатор : 224 (0xE0)
Формат : MPEG Video
Версия формата : Version 2
Профиль формата : Main@Main
Параметр BVOP формата : Да
Параметр матрицы формата : Выборочная
Параметр GOP формата : M=3, N=12
Продолжительность : 19 м.
Вид битрейта : Переменный
Битрейт : 6377 Кбит/сек
Максимальный битрейт : 9350 Кбит/сек
Ширина : 720 пикселей
Высота : 480 пикселей
Соотношение сторон : 16:9
Частота кадров : 29,970 кадров/сек
Стандарт вещания : NTSC
Цветовое пространство : YUV
Субдискретизация насыщенности : 4:2:0
Битовая глубина : 8 бит
Метод сжатия : С потерями
Бит/(Пиксели*Кадры) : 0.616
Временной код первого кадра : 00:00:00:00
Оригинал временного кода : Group of pictures header
GOP, открыто/закрыто : Открыто
GOP, открыто/закрыто на первом кадре : Закрыто
Размер потока : 896 Мбайт (87%)
Аудио #1
Идентификатор : 189 (0xBD)-128 (0x80)
Формат : AC-3
Формат/Информация : Audio Coding 3
Расширение режима : CM (complete main)
Параметр Endianness формата : Big
Режим смешивания : DVD-Video
Продолжительность : 19 м.
Вид битрейта : Постоянный
Битрейт : 384 Кбит/сек
Каналы : 6 каналов
Расположение каналов : Front: L C R, Side: L R, LFE
Частота : 48,0 КГц
Метод сжатия : С потерями
Размер потока : 53,9 Мбайт (5%)
Аудио #2
Идентификатор : 189 (0xBD)-129 (0x81)
Формат : AC-3
Формат/Информация : Audio Coding 3
Расширение режима : CM (complete main)
Параметр Endianness формата : Big
Режим смешивания : DVD-Video
Продолжительность : 19 м.
Вид битрейта : Постоянный
Битрейт : 384 Кбит/сек
Каналы : 6 каналов
Расположение каналов : Front: L C R, Side: L R, LFE
Частота : 48,0 КГц
Метод сжатия : С потерями
Размер потока : 53,9 Мбайт (5%)

MediaInfo- Диск 2

Общее
Полное имя : F:\The Secret of the Grain DVD-9_Custom +DVD-9 _Criterion#527\Диск 2\VIDEO_TS\VTS_02_1.VOB
Формат : MPEG-PS
Размер файла : 1024 Мбайт
Продолжительность : 17 м.
Режим общего битрейта : Переменный
Общий поток : 8251 Кбит/сек
Видео
Идентификатор : 224 (0xE0)
Формат : MPEG Video
Версия формата : Version 2
Профиль формата : Main@Main
Параметр BVOP формата : Да
Параметр матрицы формата : Выборочная
Параметр GOP формата : Variable
Продолжительность : 17 м.
Вид битрейта : Переменный
Битрейт : 7895 Кбит/сек
Максимальный битрейт : 9350 Кбит/сек
Ширина : 720 пикселей
Высота : 480 пикселей
Соотношение сторон : 16:9
Частота кадров : 29,970 кадров/сек
Стандарт вещания : NTSC
Цветовое пространство : YUV
Субдискретизация насыщенности : 4:2:0
Битовая глубина : 8 бит
Метод сжатия : С потерями
Бит/(Пиксели*Кадры) : 0.762
Временной код первого кадра : 00:59:59:19
Оригинал временного кода : Group of pictures header
GOP, открыто/закрыто : Открыто
GOP, открыто/закрыто на первом кадре : Закрыто
Размер потока : 980 Мбайт (96%)
Аудио
Идентификатор : 189 (0xBD)-128 (0x80)
Формат : AC-3
Формат/Информация : Audio Coding 3
Расширение режима : CM (complete main)
Параметр Endianness формата : Big
Режим смешивания : DVD-Video
Продолжительность : 17 м.
Вид битрейта : Постоянный
Битрейт : 192 Кбит/сек
Каналы : 2 канала
Расположение каналов : Front: L R
Частота : 48,0 КГц
Метод сжатия : С потерями
Размер потока : 23,8 Мбайт (2%)
Текст #1
Идентификатор : 189 (0xBD)-32 (0x20)
Формат : RLE
Формат/Информация : Run-length encoding
Режим смешивания : DVD-Video
Текст #2
Идентификатор : 189 (0xBD)-33 (0x21)
Формат : RLE
Формат/Информация : Run-length encoding
Режим смешивания : DVD-Video

Скриншоты меню-Диск 1

Скриншоты фильма-Диск 1

Скриншоты меню-Диск 2


Скриншоты доп. материалов-Диск 2



Буклет:https://www.sendspace.com/file/j291oa
[teatrix.ru].t7569.torrent 
Торрент: Зарегистрирован [ 2015-10-12 09:59 ] · F303354B6ACE4F1ABC5366986B016D771526E2EB

Скачать .torrent

Скачать

83 KB

Статус: проверено
Скачан: 0 раз
Размер: 15.52 GB
terms.php



Быстрый ответ

Имя:

      
Для отправки сообщений необходимо включить JavaScript
Показать сообщения:    

Текущее время: 10-Дек 19:41

Часовой пояс: UTC + 3


Вы можете начинать темы
Вы можете отвечать на сообщения
Вы не можете редактировать свои сообщения
Вы не можете удалять свои сообщения
Вы не можете голосовать в опросах
Вы не можете прикреплять файлы к сообщениям
Вы можете скачивать файлы