Эвелина Шац - Над всем Шекспир или Гамлет на балконе [2007, Россия, Театральная поэма, DVDRip]


 

[Цитировать]

Эвелина Шац - Над всем Шекспир или Гамлет на балконе
Страна: Россия
Жанр: Театральная поэма
Год выпуска: 2007
Продолжительность: 00:26:01
Перевод: Не требуется
Язык: Русский
Оригинальная аудиодорожка: русский
Режиссёр: Эвелина Шац
В ролях:
Елена Шкурпело - Гамлет-Офелия
Павел Кравец - Миледи
Виктор Флиер-Гинтер - Шут
Эвелина Шац - Голос автора
Описание:
Живая книга, книга-театр, дающий современную трактовку образа Гамлета, где текст и инсталляция, музыка и костюмы - единая читаемая Книга-Шар.
Доп. информация:
Музыка:
Андреа Талмелли "Гамлет в Орехе" и Игорь Рогалёв "Adieu"
на стихи Эвелины Шац, а так же Жан-Жак Лемэтр и другие
Композиция и костюмы - Эвелина Шац
Свет - Никита Лучихин
Звук - Иван Курочкин
Видео-художник - Виктор Рибас
Evelina Schatz 2007
33 экземпляра
Семпл: http://multi-up.com/1070916
Качество видео: DVDRip - Релиз DVD5
Формат видео: AVI
Видео: 720x400 (1.80:1), 25 fps, DivX Codec 6.8.5 ~1605 kbps avg, 0.22 bit/pixel
Аудио: 48 kHz, AC3 Dolby Digital, 2/0 (L,R) ch, ~192 kbps

MediaInfo

General
Complete name : Над всем Шекспир или Гамлет на балконе.avi
Format : AVI
Format/Info : Audio Video Interleave
File size : 336 MiB
Duration : 26mn 1s
Overall bit rate : 1 807 Kbps
Video
ID : 0
Format : MPEG-4 Visual
Format settings, BVOP : 1
Format settings, QPel : No
Format settings, GMC : No warppoints
Format settings, Matrix : Default (H.263)
Codec ID : DX50
Codec ID/Hint : DivX 5
Duration : 26mn 1s
Bit rate : 1 606 Kbps
Width : 720 pixels
Height : 400 pixels
Display aspect ratio : 16:9
Frame rate : 25.000 fps
Color space : YUV
Chroma subsampling : 4:2:0
Bit depth : 8 bits
Scan type : Progressive
Compression mode : Lossy
Bits/(Pixel*Frame) : 0.223
Stream size : 299 MiB (89%)
Writing library : DivX 6.8.5 (UTC 2009-08-20)
Audio
ID : 1
Format : AC-3
Format/Info : Audio Coding 3
Mode extension : CM (complete main)
Codec ID : 2000
Duration : 26mn 1s
Bit rate mode : Constant
Bit rate : 192 Kbps
Channel(s) : 2 channels
Channel positions : Front: L R
Sampling rate : 48.0 KHz
Bit depth : 16 bits
Compression mode : Lossy
Stream size : 35.7 MiB (11%)
Alignment : Aligned on interleaves
Interleave, duration : 40 ms (1.00 video frame)
Interleave, preload duration : 512 ms

Скриншот с названием постановки

Скриншоты




-



Показать сообщения:    

Текущее время: 08-Дек 03:14

Часовой пояс: UTC + 3


Вы не можете начинать темы
Вы не можете отвечать на сообщения
Вы не можете редактировать свои сообщения
Вы не можете удалять свои сообщения
Вы не можете голосовать в опросах
Вы не можете прикреплять файлы к сообщениям
Вы не можете скачивать файлы