Эвелина Шац - Над всем Шекспир или Гамлет на балконе [2007, Россия, Театральная поэма, DVD5]


 

[Цитировать]

Эвелина Шац - Над всем Шекспир или Гамлет на балконе
Страна: Россия
Жанр: Театральная поэма
Год выпуска: 2007
Продолжительность: 00:26:01
Перевод: Не требуется
Язык: Русский
Оригинальная аудиодорожка: русский
Режиссёр: Эвелина Шац
В ролях:
Елена Шкурпело - Гамлет-Офелия
Павел Кравец - Миледи
Виктор Флиер-Гинтер - Шут
Эвелина Шац - Голос автора
Описание:
Живая книга, книга-театр, дающий современную трактовку образа Гамлета, где текст и инсталляция, музыка и костюмы - единая читаемая Книга-Шар.
Доп. информация:
Музыка:
Андреа Талмелли "Гамлет в Орехе" и Игорь Рогалёв "Adieu"
на стихи Эвелины Шац, а так же Жан-Жак Лемэтр и другие
Композиция и костюмы - Эвелина Шац
Свет - Никита Лучихин
Звук - Иван Курочкин
Видео-художник - Виктор Рибас
Evelina Schatz 2007
33 экземпляра
Семпл: http://multi-up.com/1070948
Качество видео: DVD5
Формат видео: DVD-Video
Видео: PAL 16:9 (720x576) VBR ~ 4100 kbps avg, Auto Pan&Scan, Auto Letterboxed
Аудио: MPEG2 Audio, 2.0, 384 kbps

MediaInfo

GeneralComplete name : VTS_01_1.VOBFormat : MPEG-PSFile size : 837 MiBDuration : 26mn 1sOverall bit rate mode : VariableOverall bit rate : 4 498 Kbps
VideoID : 224 (0xE0)Format : MPEG VideoFormat version : Version 2Format profile : Main@MainFormat settings, BVOP : YesFormat settings, Matrix : CustomDuration : 26mn 1sBit rate mode : VariableBit rate : 4 024 KbpsMaximum bit rate : 6 000 KbpsWidth : 720 pixelsHeight : 576 pixelsDisplay aspect ratio : 16:9Frame rate : 25.000 fpsStandard : PALColor space : YUVChroma subsampling : 4:2:0Bit depth : 8 bitsScan type : InterlacedScan order : Bottom Field FirstCompression mode : LossyBits/(Pixel*Frame) : 0.388Stream size : 749 MiB (89%)
AudioID : 192 (0xC0)Format : MPEG AudioFormat version : Version 1Format profile : Layer 2Duration : 26mn 1sBit rate mode : ConstantBit rate : 384 KbpsChannel(s) : 2 channelsSampling rate : 48.0 KHzCompression mode : LossyStream size : 71.5 MiB (9%)
Menu

Скриншот с названием постановки

Скриншоты





-
-Над всем Шекспир или Гамлет на балконе [DVDRip]



Показать сообщения:    

Текущее время: 07-Дек 23:20

Часовой пояс: UTC + 3


Вы не можете начинать темы
Вы не можете отвечать на сообщения
Вы не можете редактировать свои сообщения
Вы не можете удалять свои сообщения
Вы не можете голосовать в опросах
Вы не можете прикреплять файлы к сообщениям
Вы не можете скачивать файлы