У врат царства (Юрий Еремин) [1999 г., экранизация, WEB-DLRip] Московской Государственный академический театр им. Моссовета


 

[Цитировать]

У врат царства (2 части) Название театра: Московской Государственный академический театр им. Моссовета.
Год выпуска: 1999.
Жанр: экранизация.
Продолжительность: 00:55:03 + 01:03:23 (01:58:25).
Режиссеры: заслуженный деятель искусств РСФСР, народный артист РСФСР Юрий Еремин, Константин Антропов.
Действующие лица и исполнители:
Ивар Карено - народный артист РСФСР Георгий Тараторкин,
Элина Карено - заслуженная артистка РСФСР Ольга Остроумова,
Эндрю Бондесен - народный артист Армянской ССР Геннадий Коротков,
Карстен Йервен - Андрей Сергеев,
Ингеборг - заслуженная артистка РСФСР Валентина Карева,
Таресен - Степан Старчиков,
Александра - Вера Каншина,
Сара - Татьяна Родионова.
Описание:
По одноименной пьесе норвежского писателя Кнута Гамсуна (Ved Rigets Port, 1895).
Дополнительная информация:
Страна: Россия .
Выпущено: © Московской Государственный академический театр им. Моссовета, © ГТРК "Культура".
Автор: Кнут Гамсун.
Перевод: Осип Дымов.
Режиссер спектакля: заслуженный деятель искусств РСФСР, народный артист РСФСР Юрий Еремин.
Композитор: Александр Чевский.
Художник: Мария Рыбасова.
Художник по костюмам: Татьяна Глебова.
Автор сценария: Юрий Еремин.
Режиссер телеверсии: Константин Антропов.
Операторы: Юрий Журавлёв, Юрий Назаров, Денис Рогожин, Алексей Смирнов.


Релиз
Рип sharky.

Качество видео:...WEB-DLRip
Формат:.................AVI
Видео:..704x528 (1.33:1), 25 fps, DivX Codec 4.x ~1609 kbps avg, 0.17 bit/pixel
Аудио:..44.100 kHz, MPEG Layer 3, 2 ch, ~128.00 kbps avg

Отчет MI

1-я часть
Общее
Полное имя : U.vrat.carstva_Teatr.im.Mossoveta.(2.chasti.iz.2).1999.DivX.WEB-DLRip.fenixclub\U.vrat.carstva_Teatr.im.Mossoveta.(1-ya.chast'.iz.2).1999.DivX.WEB-DLRip.fenixclub.avi
Format : AVI
Format/Info : Audio Video Interleave
File size : 688 MiB
Duration : 55mn 3s
Overall bit rate : 1 748 Kbps
Video
ID : 0
Format : MPEG-4 Visual
Format settings, BVOP : 1
Format settings, QPel : No
Format settings, GMC : No warppoints
Format settings, Matrix : Default (H.263)
Codec ID : DX50
Codec ID/Hint : DivX 5
Duration : 55mn 3s
Bit rate : 1 610 Kbps
Width : 704 pixels
Height : 528 pixels
Display aspect ratio : 4:3
Frame rate : 25.000 fps
Color space : YUV
Chroma subsampling : 4:2:0
Bit depth : 8 bits
Scan type : Progressive
Compression mode : Lossy
Bits/(Pixel*Frame) : 0.173
Stream size : 634 MiB (92%)
Title : Video
Writing library : DivX 3013
Audio
ID : 1
Format : MPEG Audio
Format version : Version 1
Format profile : Layer 3
Codec ID : 55
Codec ID/Hint : MP3
Duration : 55mn 3s
Bit rate mode : Constant
Bit rate : 128 Kbps
Channel(s) : 2 channels
Sampling rate : 44.1 KHz
Compression mode : Lossy
Stream size : 50.4 MiB (7%)
Alignment : Split accross interleaves
Interleave, duration : 40 ms (1.00 video frame)
Interleave, preload duratio : 500 ms
Title : Audio
2-я часть
Общее
Полное имя : U.vrat.carstva_Teatr.im.Mossoveta.(2.chasti.iz.2).1999.DivX.WEB-DLRip.fenixclub\U.vrat.carstva_Teatr.im.Mossoveta.(2-ya.chast'.iz.2).1999.DivX.WEB-DLRip.fenixclub.avi
Format : AVI
Format/Info : Audio Video Interleave
File size : 793 MiB
Duration : 1h 3mn
Overall bit rate : 1 749 Kbps
Video
ID : 0
Format : MPEG-4 Visual
Format settings, BVOP : 1
Format settings, QPel : No
Format settings, GMC : No warppoints
Format settings, Matrix : Default (H.263)
Codec ID : DX50
Codec ID/Hint : DivX 5
Duration : 1h 3mn
Bit rate : 1 611 Kbps
Width : 704 pixels
Height : 528 pixels
Display aspect ratio : 4:3
Frame rate : 25.000 fps
Color space : YUV
Chroma subsampling : 4:2:0
Bit depth : 8 bits
Scan type : Progressive
Compression mode : Lossy
Bits/(Pixel*Frame) : 0.173
Stream size : 730 MiB (92%)
Title : Video
Writing library : DivX 3013
Audio
ID : 1
Format : MPEG Audio
Format version : Version 1
Format profile : Layer 3
Codec ID : 55
Codec ID/Hint : MP3
Duration : 1h 3mn
Bit rate mode : Constant
Bit rate : 128 Kbps
Channel(s) : 2 channels
Sampling rate : 44.1 KHz
Compression mode : Lossy
Stream size : 58.0 MiB (7%)
Alignment : Split accross interleaves
Interleave, duration : 40 ms (1.00 video frame)
Interleave, preload duratio : 500 ms
Title : Audio

Скриншоты


Альтернативный хост





Показать сообщения:    

Текущее время: 05-Дек 15:33

Часовой пояс: UTC + 3


Вы не можете начинать темы
Вы не можете отвечать на сообщения
Вы не можете редактировать свои сообщения
Вы не можете удалять свои сообщения
Вы не можете голосовать в опросах
Вы не можете прикреплять файлы к сообщениям
Вы не можете скачивать файлы