Сказочник / Storytelling (Тодд Солондз / Todd Solondz) [2001, США, драма, мелодрама, комедия, DVDRip] AVO (Сербин)


Статистика раздачи [Обновить пиров]
Размер:  1.45 GB   |    Зарегистрирован:  1 год 1 месяц   |    Скачан:  0 раз

Полного источника не было: Никогда

 
   
 
 
 

[Цитировать]

Сказочник / Storytelling
Страна: США
Жанр: драма, мелодрама, комедия
Год выпуска: 2001
Продолжительность: 01:23:18
Перевод: Авторский (одноголосый закадровый) Сербин
Cубтитры: нет
Оригинальная аудиодорожка: нет
Режиссер: Тодд Солондз / Todd Solondz
В ролях: Джон Гудман, Сэльма Блэр, Роберт Уиздом, Пол Джаматти, Лео Фицпатрик, Мария Тэйер, Анджела Геталс, Девора Роуз, Нэнси Энн Риддер, Стивен Розен
Описание: Хотя жизнь в Америке совсем не похожа на сказку, там каждый день с людьми происходят события, способные резко изменить их судьбу, тем более, если это - неудачники, неуклюже пытающиеся сделать творческую карьеру. Как начинающей писательнице привлечь внимание знатоков к своим сочинениям?
Конечно, переспать с обладателем Пулитцеровской премии, ведущим курсы в третьеразрядном колледже и со злости совращающим наивных студенток! А что делать незадачливому документалисту, мечтающему снять революционный фильм о подростках? Разумеется, рассказать о туповатом школьнике, который хочет стать звездой телевидения! Эти творцы прокладывают себе путь к славе самыми экстремальными методами, надеясь, что шокированная публика оценит их гениальные труды!
Сэмпл: http://sendfile.su/1163753
Качество видео: DVDRip
Формат видео: AVI
Видео: 720x384 (1.88:1), 25 fps, DivX Codec 6.8.5/6.9.1 ~2285 kbps avg, 0.33 bit/pixel
Аудио: 48 kHz, AC3 Dolby Digital, 2/0 (L,R) ch, ~192 kbps

MediaInfo

Формат : AVI
Формат/Информация : Audio Video Interleave
Размер файла : 1,45 Гбайт
Продолжительность : 1 ч. 23 м.
Общий поток : 2487 Кбит/сек
Библиотека кодирования : VirtualDub build 34807/release
Видео
Идентификатор : 0
Формат : MPEG-4 Visual
Параметр BVOP формата : 1
Параметр QPel формата : Нет
Параметр GMC формата : Без точки перехода
Параметр матрицы формата : Default (H.263)
Идентификатор кодека : DX50
Идентификатор кодека/Подсказка : DivX 5
Продолжительность : 1 ч. 23 м.
Битрейт : 2286 Кбит/сек
Ширина : 720 пикселей
Высота : 384 пикселя
Соотношение сторон : 1,875
Частота кадров : 25,000 кадров/сек
Цветовое пространство : YUV
Субдискретизация насыщенности : 4:2:0
Битовая глубина : 8 бит
Тип развёртки : Прогрессивная
Метод сжатия : С потерями
Бит/(Пиксели*Кадры) : 0.331
Размер потока : 1,33 Гбайт (92%)
Библиотека кодирования : DivX 6.8.5 (UTC 2009-08-20)
Аудио
Идентификатор : 1
Формат : AC-3
Формат/Информация : Audio Coding 3
Расширение режима : CM (complete main)
Идентификатор кодека : 2000
Продолжительность : 1 ч. 23 м.
Вид битрейта : Постоянный
Битрейт : 192 Кбит/сек
Каналы : 2 канала
Расположение каналов : Front: L R
Частота : 48,0 КГц
Битовая глубина : 16 бит
Метод сжатия : С потерями
Размер потока : 114 Мбайт (8%)
Выравнивание : Соединение по промежуткам
Продолжительность промежутка : 40 мс. (1,00 видеокадр)
Время предзагрузки промежутка : 512 мс.

Скриншоты

[teatrix.ru].t7578.torrent 
Торрент: Зарегистрирован [ 2015-10-13 05:11 ] · 4F4B354F3E62623E581BD85131CA7D69DD3F8E01

Скачать .torrent

Скачать

29 KB

Статус: проверено
Скачан: 0 раз
Размер: 1.45 GB
terms.php



Быстрый ответ

Имя:

      
Для отправки сообщений необходимо включить JavaScript
Показать сообщения:    

Текущее время: 08-Дек 19:07

Часовой пояс: UTC + 3


Вы можете начинать темы
Вы можете отвечать на сообщения
Вы не можете редактировать свои сообщения
Вы не можете удалять свои сообщения
Вы не можете голосовать в опросах
Вы не можете прикреплять файлы к сообщениям
Вы можете скачивать файлы