(Orchestral) Anton Bruckner - Symphonie Nr.2 (Northern Sinfonia - Mario Venzago) - 2012, FLAC (image+.cue) lossless


 

[Цитировать]

Anton Bruckner
Symphonie 2
Northern Sinfonia
Mario Venzago-
-
- Жанр: Orchestral
Страна-производитель диска: Germany
Год издания диска: 2012
Издатель (лейбл): CPO
Дата записи: 22-25.10.2011
Аудиокодек: FLAC
Тип рипа: image+.cue
Битрейт аудио: lossless
Продолжительность: 56'28''
Источник: собственный рип
Наличие сканов в содержимом раздачи: да
Треклист:
[01] Symphonie Nr.2: I. Moderato
[02] II. Andante. Feierlich, etwas bewegt
[03] III. Scherzo. Massig schnell
[04] IV. Finale. Mehr schnell
Исполнители:
Northern Sinfonia - Mario Venzago

Лог создания рипа

Exact Audio Copy V1.0 beta 4 from 7. December 2014
EAC extraction logfile from 8. August 2015, 21:20
Northern Sinfonia - Mario Venzago / Bruckner 2
Used drive : PHILIPS PCRW804 Adapter: 1 ID: 1
Read mode : SecureUtilize accurate stream : YesDefeat audio cache : YesMake use of C2 pointers : No
Read offset correction : -436Overread into Lead-In and Lead-Out : NoFill up missing offset samples with silence : YesDelete leading and trailing silent blocks : NoNull samples used in CRC calculations : YesUsed interface : Native Win32 interface for Win NT & 2000
Used output format : User Defined EncoderSelected bitrate : 1024 kBit/sQuality : HighAdd ID3 tag : NoCommand line compressor : C:\Program Files (x86)\FLAC\flac.exeAdditional command line options : -T "COMMENT=rip by el coronel" -8 -V %source%
TOC of the extracted CD
Track | Start | Length | Start sector | End sector --------------------------------------------------------- 1 | 0:00.00 | 16:13.62 | 0 | 73036 2 | 16:13.62 | 17:42.25 | 73037 | 152711 3 | 33:56.12 | 7:02.04 | 152712 | 184365 4 | 40:58.16 | 15:30.06 | 184366 | 254121
Range status and errors
Selected range
Filename F:\Music\Bruckner 0-9 Venzago\Bruckner 2\CD.wav
Peak level 93.7 % Extraction speed 1.9 X Range quality 100.0 % Test CRC 55D18903 Copy CRC 55D18903 Copy OK
No errors occurred
AccurateRip summary
Track 1 accurately ripped (confidence 4) [B431C290] (AR v2)Track 2 accurately ripped (confidence 4) [594E12B2] (AR v2)Track 3 accurately ripped (confidence 4) [C5DD0B26] (AR v2)Track 4 accurately ripped (confidence 4) [61592DB9] (AR v2)
All tracks accurately ripped
End of status report
---- CUETools DB Plugin V2.1.4
[CTDB TOCID: r0DAhBjFzUABlKaPuj.G4jJ2xcM-] foundSubmit result: r0DAhBjFzUABlKaPuj.G4jJ2xcM- has been confirmedTrack | CTDB Status 1 | (2/2) Accurately ripped 2 | (2/2) Accurately ripped 3 | (2/2) Accurately ripped 4 | (2/2) Accurately ripped
==== Log checksum 7FD0848854385D6B35DE3450089C1C804DDFCE21D0B96D6CA386552B7BB16725 ====

Содержание индексной карты (.CUE)

REM GENRE SymphonyREM DATE 2011REM DISCID 300D3C04REM COMMENT ExactAudioCopy v1.0b4CATALOG 0761203773527PERFORMER "Northern Sinfonia - Mario Venzago"TITLE "Bruckner 2"FILE "CD.flac" WAVE TRACK 01 AUDIO TITLE "Symphonie Nr.2: I. Moderato" ISRC DEB201173501 INDEX 01 00:00:00 TRACK 02 AUDIO TITLE "II. Andante. Feierlich, etwas bewegt" ISRC DEB201173501 INDEX 01 16:13:62 TRACK 03 AUDIO TITLE "III. Scherzo. Massig schnell" ISRC DEB201173502 INDEX 01 33:56:12 TRACK 04 AUDIO TITLE "IV. Finale. Mehr schnell" ISRC DEB201173503 INDEX 01 40:58:16
-Доп информация: для первых трёх симфоний (с 0 по 2) Венцаго использовал оркестры малого состава, объясняя это тем, что премьеры ранних сочинений игрались оркестрами, в распоряжении которых было не больше 6-8 скрипок, духовые инструменты звучали мягче и фортиссими не были очень громкими.



Показать сообщения:    

Текущее время: 06-Дек 22:56

Часовой пояс: UTC + 3


Вы не можете начинать темы
Вы не можете отвечать на сообщения
Вы не можете редактировать свои сообщения
Вы не можете удалять свои сообщения
Вы не можете голосовать в опросах
Вы не можете прикреплять файлы к сообщениям
Вы не можете скачивать файлы