(Orchestral) Anton Bruckner - Symphonien Nrn.0 und 1 (Tapiola Sinfonietta - Mario Venzago) - 2011, FLAC (image+.cue) lossless


 

[Цитировать]

Anton Bruckner
Symphonien 0 & 1
Tapiola Sinfonietta
Mario Venzago-
-
- Жанр: Orchestral
Страна-производитель диска: Germany
Год издания диска: 2011
Издатель (лейбл): CPO
Дата записи: 11.2010
Аудиокодек: FLAC
Тип рипа: image+.cue
Битрейт аудио: lossless
Продолжительность: 43'58'' | 44'30''
Источник: собственный рип
Наличие сканов в содержимом раздачи: да
Треклист:

CD1

[01] Symphonie Nr.0: I. Allegro
[02] II. Andante
[03] III. Scherzo
[04] IV. Finale

Лог создания рипа

Exact Audio Copy V1.0 beta 4 from 7. December 2014
EAC extraction logfile from 9. August 2015, 19:38
Tapiola Sinfonietta - Mario Venzago / Bruckner 0
Used drive : PHILIPS PCRW804 Adapter: 1 ID: 1
Read mode : SecureUtilize accurate stream : YesDefeat audio cache : YesMake use of C2 pointers : No
Read offset correction : -436Overread into Lead-In and Lead-Out : NoFill up missing offset samples with silence : YesDelete leading and trailing silent blocks : NoNull samples used in CRC calculations : YesUsed interface : Native Win32 interface for Win NT & 2000
Used output format : User Defined EncoderSelected bitrate : 1024 kBit/sQuality : HighAdd ID3 tag : NoCommand line compressor : C:\Program Files (x86)\FLAC\flac.exeAdditional command line options : -T "COMMENT=rip by el coronel" -8 -V %source%
TOC of the extracted CD
Track | Start | Length | Start sector | End sector --------------------------------------------------------- 1 | 0:00.00 | 14:41.13 | 0 | 66087 2 | 14:41.13 | 12:16.56 | 66088 | 121343 3 | 26:57.69 | 7:07.61 | 121344 | 153429 4 | 34:05.55 | 9:52.26 | 153430 | 197855
Range status and errors
Selected range
Filename F:\Music\Bruckner 0-9 Venzago\Bruckner 0 and 1\CD.wav
Peak level 82.6 % Extraction speed 1.8 X Range quality 99.9 % Test CRC CC92F4CB Copy CRC CC92F4CB Copy OK
No errors occurred
AccurateRip summary
Track 1 accurately ripped (confidence 5) [290715F1] (AR v2)Track 2 accurately ripped (confidence 5) [35F55ED5] (AR v2)Track 3 accurately ripped (confidence 5) [C52216B3] (AR v2)Track 4 accurately ripped (confidence 5) [E6B55961] (AR v2)
All tracks accurately ripped
End of status report
---- CUETools DB Plugin V2.1.4
[CTDB TOCID: XED.oxmL367S2BXXwJxDu85wCek-] foundSubmit result: XED.oxmL367S2BXXwJxDu85wCek- has been confirmedTrack | CTDB Status 1 | (2/2) Accurately ripped 2 | (2/2) Accurately ripped 3 | (2/2) Accurately ripped 4 | (2/2) Accurately ripped
==== Log checksum F1AAAF74C8B0B6B68E4CE434973855577A561C3150B573BAB52F72C10A3DC694 ====

Содержание индексной карты (.CUE)

REM GENRE ClassicalREM DATE 2011REM DISCID 330A4E04REM COMMENT ExactAudioCopy v1.0b4CATALOG 0761203761722PERFORMER "Tapiola Sinfonietta - Mario Venzago"TITLE "Bruckner 0"FILE "CD1.flac" WAVE TRACK 01 AUDIO TITLE "Symphonie Nr.0: I. Allegro" ISRC DEB201061701 INDEX 01 00:00:00 TRACK 02 AUDIO TITLE "II. Andante" ISRC DEB201061701 INDEX 01 14:41:13 TRACK 03 AUDIO TITLE "III. Scherzo" ISRC DEB201061702 INDEX 01 26:57:69 TRACK 04 AUDIO TITLE "IV. Finale" ISRC DEB201061703 INDEX 01 34:05:55

CD2

[01] Symphonie Nr.1: I. Allegro
[02] II. Andante
[03] III. Scherzo
[04] IV. Finale

Лог создания рипа

Exact Audio Copy V1.0 beta 4 from 7. December 2014
EAC extraction logfile from 9. August 2015, 20:37
Tapiola Sinfonietta - Mario Venzago / Bruckner 1
Used drive : PHILIPS PCRW804 Adapter: 1 ID: 1
Read mode : SecureUtilize accurate stream : YesDefeat audio cache : YesMake use of C2 pointers : No
Read offset correction : -436Overread into Lead-In and Lead-Out : NoFill up missing offset samples with silence : YesDelete leading and trailing silent blocks : NoNull samples used in CRC calculations : YesUsed interface : Native Win32 interface for Win NT & 2000
Used output format : User Defined EncoderSelected bitrate : 1024 kBit/sQuality : HighAdd ID3 tag : NoCommand line compressor : C:\Program Files (x86)\FLAC\flac.exeAdditional command line options : -T "COMMENT=rip by el coronel" -8 -V %source%
TOC of the extracted CD
Track | Start | Length | Start sector | End sector --------------------------------------------------------- 1 | 0:00.00 | 11:35.15 | 0 | 52139 2 | 11:35.15 | 11:09.08 | 52140 | 102322 3 | 22:44.23 | 7:59.65 | 102323 | 138312 4 | 30:44.13 | 13:46.22 | 138313 | 200284
Range status and errors
Selected range
Filename F:\Music\Bruckner 0-9 Venzago\Bruckner 0 and 1\CD2.wav
Peak level 95.7 % Extraction speed 1.8 X Range quality 100.0 % Test CRC 2BEBB86B Copy CRC 2BEBB86B Copy OK
No errors occurred
AccurateRip summary
Track 1 accurately ripped (confidence 5) [473F64FE] (AR v2)Track 2 accurately ripped (confidence 5) [51FF1276] (AR v2)Track 3 accurately ripped (confidence 5) [61744525] (AR v2)Track 4 accurately ripped (confidence 5) [A64DACF8] (AR v2)
All tracks accurately ripped
End of status report
---- CUETools DB Plugin V2.1.4
[CTDB TOCID: USBTebEUa.Hik8K9S9AjjX3GvNw-] foundSubmit result: USBTebEUa.Hik8K9S9AjjX3GvNw- has been confirmedTrack | CTDB Status 1 | (2/2) Accurately ripped 2 | (2/2) Accurately ripped 3 | (2/2) Accurately ripped 4 | (2/2) Accurately ripped
==== Log checksum 4A8F21E9C61C519A1788FD3246907375E0C3EB8F100A28F8A4EBD8C5547AB52D ====

Содержание индексной карты (.CUE)

REM GENRE SymphonyREM DATE 2010REM DISCID 3B0A6E04REM COMMENT ExactAudioCopy v1.0b4CATALOG 0761203761722PERFORMER "Tapiola Sinfonietta - Mario Venzago"TITLE "Bruckner 1"FILE "CD2.flac" WAVE TRACK 01 AUDIO TITLE "Symphonie Nr.1: I. Allegro" ISRC DEB201061705 INDEX 01 00:00:00 TRACK 02 AUDIO TITLE "II. Andante" INDEX 01 11:35:15 TRACK 03 AUDIO TITLE "III. Scherzo" ISRC DEB201061706 INDEX 01 22:44:23 TRACK 04 AUDIO TITLE "IV. Finale" ISRC DEB201061707 INDEX 01 30:44:13
Исполнители:
Tapiola Sinfonietta - Mario Venzago
Доп. информация: 27-ой по счёту симфонический цикл Брукнера - амбициозная задумка швейцарского дирижёра Марио Венцаго. Вдохновившись опытом музыкантов старой школы, он задался целью записать свой, ни на что и ни на кого не похожий комплект симфоний композитора. Результат получился по меньшей мере противоречивый, но свою задачу Венцаго выполнил на 100%.



Показать сообщения:    

Текущее время: 03-Дек 01:22

Часовой пояс: UTC + 3


Вы не можете начинать темы
Вы не можете отвечать на сообщения
Вы не можете редактировать свои сообщения
Вы не можете удалять свои сообщения
Вы не можете голосовать в опросах
Вы не можете прикреплять файлы к сообщениям
Вы не можете скачивать файлы