(Classical / Symphony) Anton Bruckner - Symphonie Nr. 4 «Romantische» / Антон Брукнер - Симфония № 4 «Романтическая» (Symphonieorchester des Bayerischen Rundfunks, Rafael Kubelik, 1979) - 1990, FLAC (tracks+.cue) lossless


 

[Цитировать]

Anton Bruckner | Антон Брукнер
(1824–1896)



Symphonie Nr. 4 «Romantische»
Симфония № 4 «Романтическая»


Symphonieorchester des Bayerischen Rundfunks
Rafael Kubelik conductor


Жанр: Classical / Symphony
Дата записи: 18.11.1979
Год издания диска: 1990
Издатель (лейбл): CBS Records
Номер по каталогу: MDK 46505
Аудиокодек: FLAC
Тип рипа: tracks+.cue
Битрейт аудио: lossless
Продолжительность: 1:07:07
Наличие сканов в содержимом раздачи: нет
Источник: What.CD
Релизёр: yourservice


Tracklist / Треклист
Symphonie Nr. 4 Es-dur «Romantische» - 1:07:07
I. Bewegt, nicht zu schnell - 19:26
  • II. Andante quasi Allegretto - 15:10
  • III. Scherzo: Bewegt. — Trio: Nicht zu schnell - 11:03
  • IV. Finale: Bewegt, doch nicht zu schnell - 21:28

    -

    EAC log / Отчёт EAC

    Exact Audio Copy V0.99 prebeta 5 from 4. May 2009
    EAC extraction logfile from 30. June 2010, 15:27
    Rafael Rubelik / Anton Bruckner - Symphony No. 4 In E-Flat Major 'Romantic'
    Used drive : LITE-ON DVDRW LH-20A1P Adapter: 1 ID: 0
    Read mode : SecureUtilize accurate stream : YesDefeat audio cache : YesMake use of C2 pointers : No
    Read offset correction : 6Overread into Lead-In and Lead-Out : NoFill up missing offset samples with silence : YesDelete leading and trailing silent blocks : NoNull samples used in CRC calculations : YesUsed interface : Installed external ASPI interfaceGap handling : Appended to previous track
    Used output format : User Defined EncoderSelected bitrate : 320 kBit/sQuality : HighAdd ID3 tag : NoCommand line compressor : C:\Program Files\Exact Audio Copy\Flac\flac.exeAdditional command line options : -8 -A tukey(0.25) -A gauss(0.1875) -b 4096 -V -T "artist=%a" -T "title=%t" -T "album=%g" -T "date=%y" -T "tracknumber=%n" -T "genre=%m" %s --sector-align
    TOC of the extracted CD
    Track | Start | Length | Start sector | End sector --------------------------------------------------------- 1 | 0:00.00 | 19:26.00 | 0 | 87449 2 | 19:26.00 | 15:10.27 | 87450 | 155726 3 | 34:36.27 | 11:03.08 | 155727 | 205459 4 | 45:39.35 | 21:27.57 | 205460 | 302041
    Track 1
    Filename C:\Klaar\Rafael Kubelik - Anton Bruckner - Symphony No. 4 In E-Flat Major 'Romantic' Flac\01 - Rafael Rubelik - I Bewegt, Nicht Zu Schnell.wav
    Pre-gap length 0:00:02.00
    Peak level 66.6 % Track quality 100.0 % Test CRC A501251B Copy CRC A501251B Copy OK
    Track 2
    Filename C:\Klaar\Rafael Kubelik - Anton Bruckner - Symphony No. 4 In E-Flat Major 'Romantic' Flac\02 - Rafael Rubelik - II Andante Quasi Allegretto.wav
    Pre-gap length 0:00:03.77
    Peak level 63.1 % Track quality 100.0 % Test CRC 59917495 Copy CRC 59917495 Copy OK
    Track 3
    Filename C:\Klaar\Rafael Kubelik - Anton Bruckner - Symphony No. 4 In E-Flat Major 'Romantic' Flac\03 - Rafael Rubelik - III Scherzo, Bewegt; Trio.wav
    Pre-gap length 0:00:03.76
    Peak level 65.0 % Track quality 99.9 % Test CRC B32EB485 Copy CRC B32EB485 Copy OK
    Track 4
    Filename C:\Klaar\Rafael Kubelik - Anton Bruckner - Symphony No. 4 In E-Flat Major 'Romantic' Flac\04 - Rafael Rubelik - IV Finale, Bewegt, Doch Nicht Zu Schnell.wav
    Pre-gap length 0:00:03.66
    Peak level 77.7 % Track quality 99.9 % Test CRC 1B6CDACA Copy CRC 1B6CDACA Copy OK
    No errors occurred
    End of status report

    auCDtect Task Manager log / Отчёт auCDtect Task Manager

    -----------------------
    DON'T MODIFY THIS FILE
    -----------------------
    PERFORMER: auCDtect Task Manager, ver. 1.5.1RC3 build 1.5.1.4Copyright (c) 2008-2010 y-soft. All rights reserved
    ANALYZER: auCDtect: CD records authenticity detector, version 0.8.2Copyright (c) 2004 Oleg Berngardt. All rights reserved.Copyright (c) 2004 Alexander Djourik. All rights reserved.
    FILE: 03 - Symphonie Nr. 4 Es-dur ''Romantische'' - III. Scherzo. Bewegt. - Trio. Nicht zu schnell.flac Size: 40048081 Hash: 7AD5EBEDAD49E3A869FE29A0438C18A4 Accuracy: -m0 Conclusion: CDDA 100% Signature: B5BEEA9AC06BDA73119B4E22212260BC509741BAFILE: 02 - Symphonie Nr. 4 Es-dur ''Romantische'' - II. Andante quasi Allegretto.flac Size: 49391237 Hash: 828C652B1CE1BCD3456D08BC24219B94 Accuracy: -m0 Conclusion: CDDA 100% Signature: 2CA1218AB41A449D6B0FF0A9D1599E648AE40616FILE: 01 - Symphonie Nr. 4 Es-dur ''Romantische'' - I. Bewegt, nicht zu schnell.flac Size: 76369772 Hash: 12B149A28B3E604F4844624DA5588245 Accuracy: -m0 Conclusion: CDDA 100% Signature: 792F1A8DB3AA6633B8059838E786E5F7F2F33D54FILE: 04 - Symphonie Nr. 4 Es-dur ''Romantische'' - IV. Finale. Bewegt, doch nicht zu schnell.flac Size: 83965899 Hash: B07746B6AA7DB7812DD12CF5B5E09425 Accuracy: -m0 Conclusion: CDDA 100% Signature: 33C9F88136D0278D7A60017F9F6F7938F82DD353

    CUETools log / Отчёт CUETools

    [CUETools log; Date: 25.09.2015 12:46:33; Version: 2.1.4][AccurateRip ID: 000b7457-002d61b4-310fbb04] found.Track [ CRC | V2 ] Status 01 [76d5408d|c78ebdae] (2+5/7) Accurately ripped 02 [e32039cf|9cf3c95c] (2+5/7) Accurately ripped 03 [c5a206d6|df2e4eb7] (2+5/7) Accurately ripped 04 [45c75014|f30153f9] (2+6/8) Accurately ripped
    Track Peak [ CRC32 ] [W/O NULL] [ LOG ] -- 77,7 [16CA4BA0] [493A1B78] 01 66,6 [A501251B] [6842DB6E] CRC32 02 63,1 [59917495] [A845CDA3] CRC32 03 65,0 [B32EB485] [75DC278A] CRC32 04 77,7 [1B6CDACA] [37CB4D2A] CRC32

    CUE sheet

    TITLE "Anton Bruckner: Symphonie Nr. 4 Es-dur «Romantische»"PERFORMER "Rafael Kubelik"REM GENRE ClassicalREM DISCID 310FBB04REM COMMENT "ExactAudioCopy v0.99pb5"FILE "01 - Symphonie Nr. 4 Es-dur ''Romantische'' - I. Bewegt, nicht zu schnell.flac" WAVE TRACK 01 AUDIO TITLE "Symphonie Nr. 4 Es-dur «Romantische»: I. Bewegt, nicht zu schnell" PERFORMER "Symphonieorchester des Bayerischen Rundfunks, Rafael Kubelik" REM DATE 1979 INDEX 01 00:00:00 TRACK 02 AUDIO TITLE "Symphonie Nr. 4 Es-dur «Romantische»: II. Andante quasi Allegretto" PERFORMER "Symphonieorchester des Bayerischen Rundfunks, Rafael Kubelik" REM DATE 1979 INDEX 00 19:22:17FILE "02 - Symphonie Nr. 4 Es-dur ''Romantische'' - II. Andante quasi Allegretto.flac" WAVE INDEX 01 00:00:00 TRACK 03 AUDIO TITLE "Symphonie Nr. 4 Es-dur «Romantische»: III. Scherzo: Bewegt. — Trio: Nicht zu schnell" PERFORMER "Symphonieorchester des Bayerischen Rundfunks, Rafael Kubelik" REM DATE 1979 INDEX 00 15:06:45FILE "03 - Symphonie Nr. 4 Es-dur ''Romantische'' - III. Scherzo. Bewegt. - Trio. Nicht zu schnell.flac" WAVE INDEX 01 00:00:00 TRACK 04 AUDIO TITLE "Symphonie Nr. 4 Es-dur «Romantische»: IV. Finale: Bewegt, doch nicht zu schnell" PERFORMER "Symphonieorchester des Bayerischen Rundfunks, Rafael Kubelik" REM DATE 1979 INDEX 00 10:59:33FILE "04 - Symphonie Nr. 4 Es-dur ''Romantische'' - IV. Finale. Bewegt, doch nicht zu schnell.flac" WAVE INDEX 01 00:00:00



  • Показать сообщения:    

    Текущее время: 10-Дек 04:08

    Часовой пояс: UTC + 3


    Вы не можете начинать темы
    Вы не можете отвечать на сообщения
    Вы не можете редактировать свои сообщения
    Вы не можете удалять свои сообщения
    Вы не можете голосовать в опросах
    Вы не можете прикреплять файлы к сообщениям
    Вы не можете скачивать файлы