(Orchestral) Anton Bruckner - Symphonie Nr.3 (Budapest Symphony Orchestra - Lovro von Matacic) - 1999, FLAC (image+.cue) lossless


 

[Цитировать]

Anton Bruckner - Symphony No.3
Budapest Symphony Orchestra
Lovro von Matačić
-
-
-
-
- Жанр: Orchestral
Страна-производитель диска: USA
Год издания диска: 1999
Издатель (лейбл): Sardana
Дата записи: 16.05.1979
Аудиокодек: FLAC
Тип рипа: image+.cue
Битрейт аудио: lossless
Продолжительность: 60'56''
Источник: собственный рип
Наличие сканов в содержимом раздачи: да
Треклист:
Bruckner - Symphonie Nr.3:
[01] I. Mehr langsam, misterioso
[02] II. Adagio. Bewegt, quasi andante
[03] III. Scherzo - Ziemlich schnell
[04] IV. Allegro
Исполнители:
Budapest Symphony Orchestra - Lovro von Matačić

Лог создания рипа

Exact Audio Copy V1.0 beta 3 from 29. August 2011
EAC extraction logfile from 30. October 2014, 22:40
Budapest Symphony Orchestra - Lovro von Matačić / Bruckner 3
Used drive : TSSTcorpCDDVDW SN-208BB Adapter: 0 ID: 1
Read mode : SecureUtilize accurate stream : YesDefeat audio cache : YesMake use of C2 pointers : No
Read offset correction : 6Overread into Lead-In and Lead-Out : NoFill up missing offset samples with silence : YesDelete leading and trailing silent blocks : NoNull samples used in CRC calculations : YesUsed interface : Native Win32 interface for Win NT & 2000
Used output format : User Defined EncoderSelected bitrate : 896 kBit/sQuality : HighAdd ID3 tag : NoCommand line compressor : C:\Program Files (x86)\FLAC\flac.exeAdditional command line options : -T "COMMENT=rip by el coronel" -8 -V %source%
TOC of the extracted CD
Track | Start | Length | Start sector | End sector --------------------------------------------------------- 1 | 0:00.00 | 21:15.69 | 0 | 95693 2 | 21:15.69 | 15:44.60 | 95694 | 166553 3 | 37:00.54 | 7:35.05 | 166554 | 200683 4 | 44:35.59 | 16:20.45 | 200684 | 274228
Range status and errors
Selected range
Filename K:\Music\Bruckner 3 (Matacic, Budapest)\Bruckner 3.wav
Peak level 86.2 % Extraction speed 3.3 X Range quality 100.0 % Test CRC 270C1BD8 Copy CRC 270C1BD8 Copy OK
No errors occurred
AccurateRip summary
Track 1 not present in databaseTrack 2 not present in databaseTrack 3 not present in databaseTrack 4 not present in database
None of the tracks are present in the AccurateRip database
End of status report
==== Log checksum 7FF00362C55F973221F1DAFE41627685DC6DAC63F038F9A97B0251F77B3DC16C ====

Содержание индексной карты (.CUE)

REM GENRE ClassicalREM DATE 1999REM DISCID 310E4804REM COMMENT "ExactAudioCopy v1.0b3"PERFORMER "Budapest Symphony Orchestra - Lovro von Matacic"TITLE "Bruckner 3"FILE "Bruckner 3.flac" WAVE TRACK 01 AUDIO TITLE "I. Mehr langsam, misterioso" PERFORMER "Budapest Symphony Orchestra - Lovro von Matacic" INDEX 01 00:00:00 TRACK 02 AUDIO TITLE "II. Adagio. Bewegt, quasi andante" PERFORMER "Budapest Symphony Orchestra - Lovro von Matacic" INDEX 01 21:15:69 TRACK 03 AUDIO TITLE "III. Scherzo - Ziemlich schnell" PERFORMER "Budapest Symphony Orchestra - Lovro von Matacic" INDEX 01 37:00:54 TRACK 04 AUDIO TITLE "IV. Allegro" PERFORMER "Budapest Symphony Orchestra - Lovro von Matacic" INDEX 01 44:35:59



Показать сообщения:    

Текущее время: 04-Дек 13:17

Часовой пояс: UTC + 3


Вы не можете начинать темы
Вы не можете отвечать на сообщения
Вы не можете редактировать свои сообщения
Вы не можете удалять свои сообщения
Вы не можете голосовать в опросах
Вы не можете прикреплять файлы к сообщениям
Вы не можете скачивать файлы