(Classical)Domenico Cimarosa (Sinf. D-Dur), Wilhelm Friedemann Bach (Sinf. D-Dur), Giovanni Giuseppe Cambini (Sinf. D-Dur), Giovanni Paisiello (Sinf. B-Dur) - Polnische Kammerphilharmonie - W. Rajski - 1988, FLAC (tracks+.cue) lossless


 

[Цитировать]

Polnische Kammerphilharmonie - W. Rajski
Жанр: Classical
Страна-производитель диска: Western Germany
Год издания диска: 1988
Издатель (лейбл): Thorofon Record Co.
Номер по каталогу: CTH2050
Дата записи: Mai 1984
Аудиокодек: FLAC
Тип рипа: tracks+.cue
Битрейт аудио: lossless
Продолжительность: 0:43:51.
Источник: собственный рип
Наличие сканов в содержимом раздачи: да
Треклист:
01. Domenico Cimarosa - Sinfonia D-Dur - Allegro molto con brio - Andante - Allegro molto con brio [0:08:26.12]
02. Wilhelm Friedemann Bach - Sinfonia D-Dur - Allegro e maestoso [0:04:55.25]
03. Wilhelm Friedemann Bach - Sinfonia D-Dur - Andante [0:04:32.38]
04. Wilhelm Friedemann Bach - Sinfonia D-Dur - Vivace [0:04:24.00]
05. Giovanni Giuseppe Cambini - Sinfonia D-Dur - Allegro [0:05:51.37]
06. Giovanni Giuseppe Cambini - Sinfonia D-Dur - Andante [0:04:10.63]
07. Giovanni Giuseppe Cambini - Sinfonia D-Dur - Presto [0:07:18.00]
08. Giovanni Paisiello - Sinfonia B-Dur - Allegro spirituoso [0:04:13.00]
Исполнители:
Polnische Kammerphilharmonie - Wojciech Rajski

Лог создания рипа

Exact Audio Copy V1.0 beta 3 from 29. August 2011
Отчёт EAC об извлечении, выполненном 6. сентября 2015, 12:18
Polnische Kammerphilharmonie - W. Rajski / Sinfonien Der Vorklassik
Дисковод: ASUS DRW-1814BLT Adapter: 4 ID: 0
Режим чтения : ДостоверностьИспользование точного потока : ДаОтключение кэша аудио : ДаИспользование указателей C2 : Нет
Коррекция смещения при чтении : 6Способность читать области Lead-in и Lead-out : НетЗаполнение пропущенных сэмплов тишиной : ДаУдаление блоков с тишиной в начале и конце : НетПри вычислениях CRC использовались нулевые сэмплы : ДаИнтерфейс : Встроенный Win32-интерфейс для Win NT/2000Обработка зазоров : Добавлено к предыдущему треку
Выходной формат : Пользовательский кодировщикВыбранный битрейт : 128 kBit/sКачество : ВысокийДобавление ID3-тега : НетУтилита сжатия : C:\Program Files\Exact Audio Copy\Flac\flac.exeДополнительные параметры : -V -8 -T "Genre=%genre%" -T "Artist=%artist%" -T "Title=%title%" -T "Album=%albumtitle%" -T "Date=%year%" -T "Tracknumber=%tracknr%" -T "Comment=EAC1.0b2 FLAC -8" %source%
TOC извлечённого CD
Трек | Старт | Длительность | Начальный сектор | Конечный сектор --------------------------------------------------------------------- 1 | 0:00.33 | 8:26.12 | 33 | 37994 2 | 8:26.45 | 4:55.25 | 37995 | 60144 3 | 13:21.70 | 4:32.38 | 60145 | 80582 4 | 17:54.33 | 4:24.00 | 80583 | 100382 5 | 22:18.33 | 5:51.37 | 100383 | 126744 6 | 28:09.70 | 4:10.63 | 126745 | 145557 7 | 32:20.58 | 7:18.00 | 145558 | 178407 8 | 39:38.58 | 4:13.00 | 178408 | 197382
Трек 1
Имя файла R:\Раздача 53\Sinfonien Der Vorklassik - 1988 - Polnische Kammerphilharmonie - W. Rajski\01 Domenico Cimarosa - Sinfonia D-Dur - Allegro molto con brio - Andante - Allegro molto con brio.wav
Длина предзазора 0:00:02.33
Пиковый уровень 98.0 % Скорость извлечения 2.9 X Качество трека 100.0 % CRC теста BA506C8F CRC копии BA506C8F Трек не обнаружен в базе AccurateRip Копирование... OK
Трек 2
Имя файла R:\Раздача 53\Sinfonien Der Vorklassik - 1988 - Polnische Kammerphilharmonie - W. Rajski\02 Wilhelm Friedemann Bach - Sinfonia D-Dur - Allegro e maestoso.wav
Длина предзазора 0:00:02.37
Пиковый уровень 86.0 % Скорость извлечения 3.3 X Качество трека 100.0 % CRC теста E7560837 CRC копии E7560837 Трек не обнаружен в базе AccurateRip Копирование... OK
Трек 3
Имя файла R:\Раздача 53\Sinfonien Der Vorklassik - 1988 - Polnische Kammerphilharmonie - W. Rajski\03 Wilhelm Friedemann Bach - Sinfonia D-Dur - Andante.wav
Длина предзазора 0:00:03.25
Пиковый уровень 59.9 % Скорость извлечения 3.5 X Качество трека 100.0 % CRC теста BA3EA7B6 CRC копии BA3EA7B6 Трек не обнаружен в базе AccurateRip Копирование... OK
Трек 4
Имя файла R:\Раздача 53\Sinfonien Der Vorklassik - 1988 - Polnische Kammerphilharmonie - W. Rajski\04 Wilhelm Friedemann Bach - Sinfonia D-Dur - Vivace.wav
Длина предзазора 0:00:02.25
Пиковый уровень 78.0 % Скорость извлечения 3.8 X Качество трека 100.0 % CRC теста B7072780 CRC копии B7072780 Трек не обнаружен в базе AccurateRip Копирование... OK
Трек 5
Имя файла R:\Раздача 53\Sinfonien Der Vorklassik - 1988 - Polnische Kammerphilharmonie - W. Rajski\05 Giovanni Giuseppe Cambini - Sinfonia D-Dur - Allegro.wav
Длина предзазора 0:00:03.38
Пиковый уровень 81.0 % Скорость извлечения 4.1 X Качество трека 100.0 % CRC теста 63747671 CRC копии 63747671 Трек не обнаружен в базе AccurateRip Копирование... OK
Трек 6
Имя файла R:\Раздача 53\Sinfonien Der Vorklassik - 1988 - Polnische Kammerphilharmonie - W. Rajski\06 Giovanni Giuseppe Cambini - Sinfonia D-Dur - Andante.wav
Длина предзазора 0:00:02.47
Пиковый уровень 41.1 % Скорость извлечения 4.2 X Качество трека 100.0 % CRC теста E5228E15 CRC копии E5228E15 Трек не обнаружен в базе AccurateRip Копирование... OK
Трек 7
Имя файла R:\Раздача 53\Sinfonien Der Vorklassik - 1988 - Polnische Kammerphilharmonie - W. Rajski\07 Giovanni Giuseppe Cambini - Sinfonia D-Dur - Presto.wav
Длина предзазора 0:00:02.38
Пиковый уровень 95.2 % Скорость извлечения 4.7 X Качество трека 100.0 % CRC теста CDC51655 CRC копии CDC51655 Трек не обнаружен в базе AccurateRip Копирование... OK
Трек 8
Имя файла R:\Раздача 53\Sinfonien Der Vorklassik - 1988 - Polnische Kammerphilharmonie - W. Rajski\08 Giovanni Paisiello - Sinfonia B-Dur - Allegro spirituoso.wav
Длина предзазора 0:00:05.00
Пиковый уровень 98.7 % Скорость извлечения 2.8 X Качество трека 99.9 % CRC теста 7D6028B1 CRC копии 7D6028B1 Трек не обнаружен в базе AccurateRip Копирование... OK
Ни одного трека нет в базе AccurateRip
Ошибок не произошло
Конец отчёта
==== Контрольная сумма отчёта 9968C3D685C7B9743451E116DEEE1E98E1A83BFDD479FCE0F8B0BC9B9B3F4BC0 ====

Содержание индексной карты (.CUE)

REM GENRE ClassicalREM DATE 1988REM DISCID 5E0A4708REM COMMENT "ExactAudioCopy v1.0b3"PERFORMER "Polnische Kammerphilharmonie - W. Rajski"TITLE "Sinfonien Der Vorklassik"FILE "01 Domenico Cimarosa - Sinfonia D-Dur - Allegro molto con brio - Andante - Allegro molto con brio.wav" WAVE TRACK 01 AUDIO TITLE "Domenico Cimarosa - Sinfonia D-Dur - Allegro molto con brio - Andante - Alleg..." PERFORMER "Polnische Kammerphilharmonie - W. Rajski" PREGAP 00:00:33 INDEX 01 00:00:00 TRACK 02 AUDIO TITLE "Wilhelm Friedemann Bach - Sinfonia D-Dur - Allegro e maestoso" PERFORMER "Polnische Kammerphilharmonie - W. Rajski" INDEX 00 08:23:50FILE "02 Wilhelm Friedemann Bach - Sinfonia D-Dur - Allegro e maestoso.wav" WAVE INDEX 01 00:00:00 TRACK 03 AUDIO TITLE "Wilhelm Friedemann Bach - Sinfonia D-Dur - Andante" PERFORMER "Polnische Kammerphilharmonie - W. Rajski" INDEX 00 04:52:00FILE "03 Wilhelm Friedemann Bach - Sinfonia D-Dur - Andante.wav" WAVE INDEX 01 00:00:00 TRACK 04 AUDIO TITLE "Wilhelm Friedemann Bach - Sinfonia D-Dur - Vivace" PERFORMER "Polnische Kammerphilharmonie - W. Rajski" INDEX 00 04:30:13FILE "04 Wilhelm Friedemann Bach - Sinfonia D-Dur - Vivace.wav" WAVE INDEX 01 00:00:00 TRACK 05 AUDIO TITLE "Giovanni Giuseppe Cambini - Sinfonia D-Dur - Allegro" PERFORMER "Polnische Kammerphilharmonie - W. Rajski" INDEX 00 04:20:37FILE "05 Giovanni Giuseppe Cambini - Sinfonia D-Dur - Allegro.wav" WAVE INDEX 01 00:00:00 TRACK 06 AUDIO TITLE "Giovanni Giuseppe Cambini - Sinfonia D-Dur - Andante" PERFORMER "Polnische Kammerphilharmonie - W. Rajski" INDEX 00 05:48:65FILE "06 Giovanni Giuseppe Cambini - Sinfonia D-Dur - Andante.wav" WAVE INDEX 01 00:00:00 TRACK 07 AUDIO TITLE "Giovanni Giuseppe Cambini - Sinfonia D-Dur - Presto" PERFORMER "Polnische Kammerphilharmonie - W. Rajski" INDEX 00 04:08:25FILE "07 Giovanni Giuseppe Cambini - Sinfonia D-Dur - Presto.wav" WAVE INDEX 01 00:00:00 TRACK 08 AUDIO TITLE "Giovanni Paisiello - Sinfonia B-Dur - Allegro spirituoso" PERFORMER "Polnische Kammerphilharmonie - W. Rajski" INDEX 00 07:13:00FILE "08 Giovanni Paisiello - Sinfonia B-Dur - Allegro spirituoso.wav" WAVE INDEX 01 00:00:00



Показать сообщения:    

Текущее время: 08-Дек 01:19

Часовой пояс: UTC + 3


Вы не можете начинать темы
Вы не можете отвечать на сообщения
Вы не можете редактировать свои сообщения
Вы не можете удалять свои сообщения
Вы не можете голосовать в опросах
Вы не можете прикреплять файлы к сообщениям
Вы не можете скачивать файлы