(Classical) Sibelius - Pro Musica Symphony Orchestra - Symphony No. 2 Op. 43 & Finlandia Op. 26 - 1994, FLAC (tracks+.cue) lossless


 

[Цитировать]

Sibelius - Pro Musica Symphony Orchestra - Symphony No. 2 Op. 43 & Finlandia Op.26
Жанр: Classical
Страна-производитель диска: EC
Год издания диска: 1994
Издатель (лейбл): The Moss Music Group/Marshall Cavendish/ALP
Номер по каталогу: MC041
Аудиокодек: FLAC
Тип рипа: tracks+.cue
Битрейт аудио: lossless
Продолжительность: 0:55:19.
Источник: собственный рип
Наличие сканов в содержимом раздачи: да
Треклист:
01. Allegretto [0:09:30.70]
02. Tempo Andante; ma rubato [0:13:49.72]
03. Vivacissimo [0:06:53.08]
04. Finale - Allegro moderato [0:16:29.62]
05. Finlandia, Op. 26 [0:08:35.13]
Исполнители:
Pro Musica Symphony Orchestra - Georgy Alexandrov, dirigent.

Лог создания рипа

Exact Audio Copy V1.0 beta 3 from 29. August 2011
Отчёт EAC об извлечении, выполненном 6. сентября 2015, 11:35
Pro Musica Symphony Orchestra / Sibelius - Symphony No. 2 Op. 43 & Finlandia Op. 26
Дисковод: ASUS DRW-1814BLT Adapter: 4 ID: 0
Режим чтения : ДостоверностьИспользование точного потока : ДаОтключение кэша аудио : ДаИспользование указателей C2 : Нет
Коррекция смещения при чтении : 6Способность читать области Lead-in и Lead-out : НетЗаполнение пропущенных сэмплов тишиной : ДаУдаление блоков с тишиной в начале и конце : НетПри вычислениях CRC использовались нулевые сэмплы : ДаИнтерфейс : Встроенный Win32-интерфейс для Win NT/2000Обработка зазоров : Добавлено к предыдущему треку
Выходной формат : Пользовательский кодировщикВыбранный битрейт : 128 kBit/sКачество : ВысокийДобавление ID3-тега : НетУтилита сжатия : C:\Program Files\Exact Audio Copy\Flac\flac.exeДополнительные параметры : -V -8 -T "Genre=%genre%" -T "Artist=%artist%" -T "Title=%title%" -T "Album=%albumtitle%" -T "Date=%year%" -T "Tracknumber=%tracknr%" -T "Comment=EAC1.0b2 FLAC -8" %source%
TOC извлечённого CD
Трек | Старт | Длительность | Начальный сектор | Конечный сектор --------------------------------------------------------------------- 1 | 0:00.33 | 9:30.70 | 33 | 42852 2 | 9:31.28 | 13:49.72 | 42853 | 105099 3 | 23:21.25 | 6:53.08 | 105100 | 136082 4 | 30:14.33 | 16:29.62 | 136083 | 210319 5 | 46:44.20 | 8:35.13 | 210320 | 248957
Трек 1
Имя файла R:\Раздача 53\Sibelius - Symph.#2D-Dur op.43 - Finlandia op.26 - 1994 - Pro Musica Orch\01 Allegretto.wav
Длина предзазора 0:00:02.33
Пиковый уровень 91.8 % Скорость извлечения 5.9 X Качество трека 100.0 % CRC теста AF99EBFC CRC копии AF99EBFC Точное извлечение (достоверность 6) [EF8B7C73] (AR v2) Копирование... OK
Трек 2
Имя файла R:\Раздача 53\Sibelius - Symph.#2D-Dur op.43 - Finlandia op.26 - 1994 - Pro Musica Orch\02 Tempo Andante; ma rubato.wav
Длина предзазора 0:00:01.00
Пиковый уровень 93.8 % Скорость извлечения 7.5 X Качество трека 100.0 % CRC теста D1972168 CRC копии D1972168 Точное извлечение (достоверность 6) [E79BD27B] (AR v2) Копирование... OK
Трек 3
Имя файла R:\Раздача 53\Sibelius - Symph.#2D-Dur op.43 - Finlandia op.26 - 1994 - Pro Musica Orch\03 Vivacissimo.wav
Длина предзазора 0:00:01.00
Пиковый уровень 98.3 % Скорость извлечения 8.2 X Качество трека 100.0 % CRC теста F318E832 CRC копии F318E832 Точное извлечение (достоверность 6) [15D058DB] (AR v2) Копирование... OK
Трек 4
Имя файла R:\Раздача 53\Sibelius - Symph.#2D-Dur op.43 - Finlandia op.26 - 1994 - Pro Musica Orch\04 Finale - Allegro moderato.wav
Пиковый уровень 98.3 % Скорость извлечения 9.7 X Качество трека 100.0 % CRC теста 6F613740 CRC копии 6F613740 Точное извлечение (достоверность 6) [97C7840F] (AR v2) Копирование... OK
Трек 5
Имя файла R:\Раздача 53\Sibelius - Symph.#2D-Dur op.43 - Finlandia op.26 - 1994 - Pro Musica Orch\05 Finlandia, Op. 26.wav
Длина предзазора 0:00:04.00
Пиковый уровень 98.3 % Скорость извлечения 10.3 X Качество трека 100.0 % CRC теста 26835FB5 CRC копии 26835FB5 Точное извлечение (достоверность 6) [2C817ED6] (AR v2) Копирование... OK
Все треки извлечены точно
Ошибок не произошло
Конец отчёта
==== Контрольная сумма отчёта A53BDAB659681D997C0B55086F01508DC9ADE9BDD696C80DE93A612666754F1D ====

Содержание индексной карты (.CUE)

REM GENRE ClassicalREM DATE 1994REM DISCID 390CF705REM COMMENT "ExactAudioCopy v1.0b3"CATALOG 0000000000000PERFORMER "Pro Musica Symphony Orchestra"TITLE "Sibelius - Symphony No. 2 Op. 43 & Finlandia Op. 26"FILE "01 Allegretto.wav" WAVE TRACK 01 AUDIO TITLE "Allegretto" PERFORMER "Pro Musica Symphony Orchestra" PREGAP 00:00:33 INDEX 01 00:00:00 TRACK 02 AUDIO TITLE "Tempo Andante; ma rubato" PERFORMER "Pro Musica Symphony Orchestra" INDEX 00 09:29:70FILE "02 Tempo Andante; ma rubato.wav" WAVE INDEX 01 00:00:00 TRACK 03 AUDIO TITLE "Vivacissimo" PERFORMER "Pro Musica Symphony Orchestra" INDEX 00 13:48:72FILE "03 Vivacissimo.wav" WAVE INDEX 01 00:00:00FILE "04 Finale - Allegro moderato.wav" WAVE TRACK 04 AUDIO TITLE "Finale - Allegro moderato" PERFORMER "Pro Musica Symphony Orchestra" INDEX 01 00:00:00 TRACK 05 AUDIO TITLE "Finlandia, Op. 26" PERFORMER "Pro Musica Symphony Orchestra" INDEX 00 16:25:62FILE "05 Finlandia, Op. 26.wav" WAVE INDEX 01 00:00:00



Показать сообщения:    

Текущее время: 03-Дек 05:25

Часовой пояс: UTC + 3


Вы не можете начинать темы
Вы не можете отвечать на сообщения
Вы не можете редактировать свои сообщения
Вы не можете удалять свои сообщения
Вы не можете голосовать в опросах
Вы не можете прикреплять файлы к сообщениям
Вы не можете скачивать файлы